Достать ножи: Стеклянная луковица

MVO

Добыча

Дубляж

Уэнсдэй

1 сезон

Тор

Дубляж

13 клиническая

1 сезон

Жестокая ночь

MVO

Одни из нас

1 сезон

Deluxe

pack

Рекомендуем

30

Пиратка

ВАЖНО

ВАЖНО

Ghostwire

Пиратка

jed

RePack

nioh2

RePack

RDR2

RePack

NEED FOR SPEED™ PAYBACK

RePack

скачать торрент

Кинопоиск HD

Острые козырьки 6 сезон

6 сезон

FAR CRY 6

RePack

скачать торрент

Лицензия

скачать торрент

MVO

1

1 сезон

скачать торрент

1 сезон

скачать торрент

Лицензия

  

Быстрый и мертвый / The Quick and the Dead (Сэм Рэйми) [1995, вестерн, боевик, триллер, UHD BDRemux 2160p] Дубляж + 2xMVO + 2xAVO

Быстрый и мертвый через торрент piratbit.org

Размер: 52.56 GB | Добавлен: 3 года 8 мес. назад | Торрент скачан:19 раз
Смотреть онлайн | Скачать | Поддержите нас   

16-05-2019 12:43 Быстрый и мертвый Скачать торрент  

Быстрый и мертвый / The Quick and the Dead

Год выпуска: 1995
Страна: США, Япония
Жанр: вестерн, боевик, триллер
Продолжительность: 01:45:06
Перевод: Дублированный, профессиональный многоголосый, авторский
Субтитры: Русские (полные), Английский (полные, SDH)
Режиссер: Сэм Рэйми
В ролях:

Шэрон Стоун (Ellen), Рассел Кроу (Cort), Джин Хэкмен (Herod), Леонардо ДиКаприо (Kid), Тобин Белл (Dog Kelly), Кит Дэвид (Sgt. Cantrell), Лэнс Хенриксен (Ace Hanlon), Гэри Синиз (Marshall), Робертс Блоссом (Doc Wallace), Кевин Конуэй (Eugene Dred), Пэт Хингл (Horace the Bartender), Марк Бун Джуниор (Scars)
Описание:
Пустыня, и посреди нее - маленький грязный городок. Здесь только женщины и больные не носят кобуры на поясе. В городе хозяйничает Джон Ирод - жестокий и хладнокровный человек. Все его боятся, и каждая собака его знает. Если он разрешил тебе - ты можешь жить.
Рейтинг:

MPAA: R - Лицам до 17 лет обязательно присутствие взрослого
Качество: UHD BDRemux 2160p
Формат: MKV
Видео: HEVC HDR, 55400 Кбит/с, 3840x2160, 23.976 Кадр/с
Аудио 1: Русский: DTS-HD MA 7.1 , ~5152 Кбит/с |Дубляж, krat11|
Аудио 2: Русский: AC3, 2/0 (L,R) ch, ~224 Кбит/с |Многоголосый закадровый, ВидеоСервис|
Аудио 3: Русский: AC3, 2/0 (L,R) ch, ~224 Кбит/с |Многоголосый закадровый, Первый канал|
Аудио 4: Русский: DTS-HD MA 7.1 , ~4473 Кбит/с |Одноголосый закадровый, А.Гаврилов|
Аудио 5: Русский: AC3, 2/0 (L,R) ch, ~192 Кбит/с |Одноголосый закадровый, С.Визгунов|
Аудио 6: Английский: Atmos TrueHD 7.1, ~5167 Кбит/с
Аудио 7: Английский AC3, 3/2 (L,C,R,l,r) + LFE ch, ~640 Кбит/с
Навигация по главам: есть

General
Unique ID : 130456976637536284733566299983870911611 (0x6225198AEC4548DE156BF4D961C3647B)
Complete name : C:\Users\Home\Desktop\The.Quick.and.the.Dead.1995.2160p.HDR.BDRemux.mkv
Format : Matroska
Format version : Version 4 / Version 2
File size : 52.6 GiB
Duration : 1 h 45 min
Overall bit rate mode : Variable
Overall bit rate : 71.6 Mb/s
Encoded date : UTC 2019-01-02 11:04:45
Writing application : mkvmerge v28.2.0 ('The Awakening') 64-bit
Writing library : libebml v1.3.6 + libmatroska v1.4.9
Cover : Yes
Attachments : cover.jpg

Video
ID : 1
Format : HEVC
Format/Info : High Efficiency Video Coding
Commercial name : HDR10
Format profile : Main 10@L5.1@High
Codec ID : V_MPEGH/ISO/HEVC
Duration : 1 h 45 min
Bit rate : 55.4 Mb/s
Width : 3 840 pixels
Height : 2 160 pixels
Display aspect ratio : 16:9
Frame rate mode : Constant
Frame rate : 23.976 (24000/1001) FPS
Color space : YUV
Chroma subsampling : 4:2:0 (Type 2)
Bit depth : 10 bits
Bits/(Pixel*Frame) : 0.279
Stream size : 40.7 GiB (77%)
Title : BDRemux.2160p.HDR by Silverok
Default : Yes
Forced : No
Color range : Limited
Color primaries : BT.2020
Transfer characteristics : PQ
Matrix coefficients : BT.2020 non-constant
Mastering display color pri : BT.709
Mastering display luminance : min: 0.0050 cd/m2, max: 4000 cd/m2
Maximum Content Light Level : 3227 cd/m2
Maximum Frame-Average Light : 385 cd/m2

Audio #1
ID : 2
Format : DTS
Format/Info : Digital Theater Systems
Format profile : MA / Core
Codec ID : A_DTS
Duration : 1 h 45 min
Bit rate mode : Variable / Constant
Bit rate : 5 152 kb/s / 1 509 kb/s
Channel(s) : 8 channels / 6 channels
Channel positions : Front: L C R, Side: L R, Back: L R, LFE / Front: L C R, Side: L R, LFE
Sampling rate : 48.0 kHz
Frame rate : 93.750 FPS (512 SPF)
Bit depth : 24 bits
Compression mode : Lossless / Lossy
Delay relative to video : 10 ms
Stream size : 3.78 GiB (7%)
Title : Дубляж (krat11)
Language : Russian
Default : Yes
Forced : No

Audio #2
ID : 3
Format : AC-3
Format/Info : Audio Coding 3
Codec ID : A_AC3
Duration : 1 h 45 min
Bit rate mode : Constant
Bit rate : 224 kb/s
Channel(s) : 2 channels
Channel positions : Front: L R
Sampling rate : 48.0 kHz
Frame rate : 31.250 FPS (1536 SPF)
Bit depth : 16 bits
Compression mode : Lossy
Stream size : 168 MiB (0%)
Title : Многоголосый закадровый (ВидеоСервис
Language : Russian
Service kind : Complete Main
Default : No
Forced : No

Audio #3
ID : 4
Format : AC-3
Format/Info : Audio Coding 3
Codec ID : A_AC3
Duration : 1 h 45 min
Bit rate mode : Constant
Bit rate : 224 kb/s
Channel(s) : 2 channels
Channel positions : Front: L R
Sampling rate : 48.0 kHz
Frame rate : 31.250 FPS (1536 SPF)
Bit depth : 16 bits
Compression mode : Lossy
Stream size : 168 MiB (0%)
Title : Многоголосый закадровый (Первый канал)
Language : Russian
Service kind : Complete Main
Default : No
Forced : No

Audio #4
ID : 5
Format : DTS
Format/Info : Digital Theater Systems
Format profile : MA / Core
Codec ID : A_DTS
Duration : 1 h 45 min
Bit rate mode : Variable / Constant
Bit rate : 4 473 kb/s / 1 509 kb/s
Channel(s) : 8 channels / 6 channels
Channel positions : Front: L C R, Side: L R, Back: L R, LFE / Front: L C R, Side: L R, LFE
Sampling rate : 48.0 kHz
Frame rate : 93.750 FPS (512 SPF)
Bit depth : 24 bits
Compression mode : Lossless / Lossy
Delay relative to video : 16 ms
Stream size : 3.28 GiB (6%)
Title : Авторский (А.Гаврилов)
Language : Russian
Default : No
Forced : No

Audio #5
ID : 6
Format : AC-3
Format/Info : Audio Coding 3
Codec ID : A_AC3
Duration : 1 h 45 min
Bit rate mode : Constant
Bit rate : 192 kb/s
Channel(s) : 2 channels
Channel positions : Front: L R
Sampling rate : 48.0 kHz
Frame rate : 31.250 FPS (1536 SPF)
Bit depth : 16 bits
Compression mode : Lossy
Stream size : 144 MiB (0%)
Title : Авторский (С. Визгунов)
Language : Russian
Service kind : Complete Main
Default : No
Forced : No

Audio #6
ID : 7
Format : TrueHD
Format profile : TrueHD+Atmos / TrueHD
Codec ID : A_TRUEHD
Duration : 1 h 45 min
Bit rate mode : Variable
Bit rate : 5 167 kb/s
Maximum bit rate : 8 103 kb/s
Channel(s) : Object Based / 8 channels
Channel positions : Object Based / Front: L C R, Side: L R, Back: L R, LFE
Sampling rate : / 48.0 kHz
Frame rate : 1 200.000 FPS (40 SPF)
Compression mode : Lossless
Stream size : 3.79 GiB (7%)
Language : English
Default : No
Forced : No

Audio #7
ID : 8
Format : AC-3
Format/Info : Audio Coding 3
Codec ID : A_AC3
Duration : 1 h 45 min
Bit rate mode : Constant
Bit rate : 640 kb/s
Channel(s) : 6 channels
Channel positions : Front: L C R, Side: L R, LFE
Sampling rate : 48.0 kHz
Frame rate : 31.250 FPS (1536 SPF)
Bit depth : 16 bits
Compression mode : Lossy
Stream size : 481 MiB (1%)
Language : English
Service kind : Complete Main
Default : No
Forced : No

Text #1
ID : 9
Format : UTF-8
Codec ID : S_TEXT/UTF8
Codec ID/Info : UTF-8 Plain Text
Duration : 1 h 40 min
Bit rate : 50 b/s
Count of elements : 580
Stream size : 37.3 KiB (0%)
Title : Full
Language : Russian
Default : Yes
Forced : No

Text #2
ID : 10
Format : UTF-8
Codec ID : S_TEXT/UTF8
Codec ID/Info : UTF-8 Plain Text
Duration : 1 h 39 min
Bit rate : 37 b/s
Count of elements : 870
Stream size : 27.3 KiB (0%)
Title : Full
Language : English
Default : No
Forced : No

Text #3
ID : 11
Format : UTF-8
Codec ID : S_TEXT/UTF8
Codec ID/Info : UTF-8 Plain Text
Duration : 1 h 41 min
Bit rate : 45 b/s
Count of elements : 1285
Stream size : 34.1 KiB (0%)
Title : SDH
Language : English
Default : No
Forced : No

Menu
00:00:00.000 : en:00:00:00.000
00:07:20.315 : en:00:07:20.315
00:15:25.174 : en:00:15:25.174
00:20:39.530 : en:00:20:39.530
00:28:14.151 : en:00:28:14.151
00:34:40.620 : en:00:34:40.620
00:40:48.905 : en:00:40:48.905
00:47:40.357 : en:00:47:40.357
00:53:18.946 : en:00:53:18.946
00:59:50.754 : en:00:59:50.754
01:06:26.566 : en:01:06:26.566
01:12:24.966 : en:01:12:24.966
01:16:25.331 : en:01:16:25.331
01:23:20.454 : en:01:23:20.454
01:30:43.688 : en:01:30:43.688
01:35:55.750 : en:01:35:55.750



Скачать Быстрый и мертвый через торрент https://b.radikal.ru/b36/1807/e3/264a96221527.png Скачать, смотреть онлайн Быстрый и мертвый бесплантно в хорошем качестве Описание: Пустыня, и посреди нее - маленький грязный городок. Здесь только женщины и больные не носят кобуры на поясе. В городе хозяйничает ... 10 10 5
Торрент: Зарегистрирован [2019-05-16 12:43] · скачан: 19 раз
Статус: √ проверено
Размер: 52.56 GB
Как cкачать? Как скачать Быстрый и мертвый через торрент | UTorrent

28-11-2019 20:33  


Отключить вcю реклaмy на сайте, в т.ч. и в плеере онлайн просмотра!

    Дорогой пользователь! Огромная просьба, поблагодарите релизера, оцените раздачу и оставьте свои комментарий, если Вы скачали Быстрый и мертвый через торрент бесплатно!!
    Комментировать посты могут только пользователи прошедшие не сложную регистрацию
    Показать сообщения:    


    Быстрый и мертвый через торрент
    Скачать бесплатно Быстрый и мертвый
    Быстрый и мертвый скачать торрент
    Быстрый и мертвый смотреть онлайн
    Cкачать фильм Быстрый и мертвый бесплатно
    Быстрый и мертвый скачать торрент в хорошем качестве
    Быстрый и мертвый смотреть онлайн бесплатно в хорошем качестве
    Вы не можете начинать темы
    Вы не можете отвечать на сообщения
    Вы не можете редактировать свои сообщения
    Вы не можете удалять свои сообщения
    Вы не можете голосовать в опросах
    Вы не можете прикреплять файлы к сообщениям
    Вы можете скачивать файлы
    Быстрый и мертвый / The Quick and the Dead [1995, вестерн, боевик, триллер, UHD BDRemux 2160p] Дубляж + 2xMVO + 2xAVO смотреть онлайн, скачать торрент picoco.icu