Лицензия

MVO

1

1 сезон

Лицензия

Лицензия

13

MVO

1 сезон

Deluxe Edition

pack

Рекомендуем

30

Repack

ВАЖНО

ВАЖНО

Ghostwire

RePack

jed

RePack

fifa19

RePack

RDR2

RePack

NEED FOR SPEED™ PAYBACK

RePack

Кинопоиск HD

 Острые козырьки 6 сезон

6 сезон

FAR CRY 6

RePack

Лицензия

MVO

1

1 сезон

1 сезон

Лицензия

  

Каин XVIII (Надежда Кошеверова, Михаил Шапиро) [1963, СССР, фэнтези, мелодрама, приключения, DVDRip от AVP Studio]

Каин XVIII через торрент piratbit.org

Размер: 1.09 GB | Добавлен: 3 года 4 мес. назад | Торрент скачан:29 раз
Смотреть онлайн Каин XVIII | Скачать   

19-05-2019 10:20 Каин XVIII Скачать торрент  

Каин XVIII
Страна: СССР
Производство: Ленфильм

Жанр: фэнтези, мелодрама, приключения
Год выпуска: 1963
Продолжительность: 01:29:09

Перевод: Не требуется
Cубтитры: нет
Оригинальная аудиодорожка: русский

Режиссер: Надежда Кошеверова, Михаил Шапиро

В ролях:
Эраст Гарин, Лидия Сухаревская, Светлана Лощинина, Юрий Любимов, Бруно Фрейндлих, Михаил Жаров, Александр Демьяненко, Станислав Хитров, Александр Бениаминов, Рина Зелёная, Михаил Глузский, Борис Чирков, Георгий Вицин...
Об актёрах подробней

Описание:
Фильм по пьесе Е. Шварца "Голый король", переработанный впоследствии в сценарий «Два друга».
Бродячие музыканты Ян и Жан отправляются в страну короля Каина, полицейское государство, в котором предательство и подлость возведены в почет. Бродячий музыкант Ян влюбляется в принцессу, которую хотят отдать за старика-короля Каина из соседнего королевства, самодура и подлеца. Но любовь преодолевает преграды и соединяет сердца влюбленных.

Источник: DVD5 R5
Качество видео: DVDRip
Формат видео: AVI

Видео: 704х528 (4:3), 25,000 fps, XviD ~ 1546 kbps avg, 0.166 bit/pixel
Аудио: 48 kHz, Dolby Digital AC3 2.0, 192 kbps

Раздача от:
Общее
Полное имя : Kain.XVIII.1963.DVDRip_[New-team]_by_AVP_Studio.avi
Формат : AVI
Формат/Информация : Audio Video Interleave
Размер файла : 1,09 Гбайт
Продолжительность : 1 ч. 29 м.
Общий поток : 1748 Кбит/сек
Программа кодирования : VirtualDubMod 1.5.10.3 | www.virtualdub-fr.org || (build 2550/release)
Библиотека кодирования : VirtualDubMod build 2550/release

Видео
Идентификатор : 0
Формат : MPEG-4 Visual
Профиль формата : Advanced Simple@L5
Настройки формата : BVOP1 / Custom Matrix
Параметр BVOP формата : 1
Параметр QPel формата : Нет
Параметр GMC формата : Без точки перехода
Параметр матрицы формата : Выборочная
Идентификатор кодека : XVID
Идентификатор кодека/Подсказка : XviD
Продолжительность : 1 ч. 29 м.
Битрейт : 1546 Кбит/сек
Ширина : 704 пикселя
Высота : 528 пикселей
Соотношение сторон : 4:3
Частота кадров : 25,000 кадров/сек
Цветовое пространство : YUV
Субдискретизация насыщенности : 4:2:0
Битовая глубина : 8 бит
Тип развёртки : Прогрессивная
Метод сжатия : С потерями
Бит/(Пиксели*Кадры) : 0.166
Размер потока : 986 Мбайт (88%)
Библиотека кодирования : XviD 73

Аудио
Идентификатор : 1
Формат : AC-3
Формат/Информация : Audio Coding 3
Коммерческое название : Dolby Digital
Идентификатор кодека : 2000
Продолжительность : 1 ч. 29 м.
Вид битрейта : Постоянный
Битрейт : 192 Кбит/сек
Каналы : 2 канала
ChannelLayout : L R
Частота : 48,0 КГц
Частота кадров : 31,250 кадров/сек (1536 SPF)
Битовая глубина : 16 бит
Метод сжатия : С потерями
Размер потока : 122 Мбайт (11%)
Выравнивание : Разделение по промежуткам
Продолжительность промежутка : 40 мс. (1,00 видеокадр)
Время предзагрузки промежутка : 500 мс.



Скачать Каин XVIII через торрент http://picplus.ru/img/1905/19/5d31d40e.png Скачать, смотреть онлайн Каин XVIII бесплантно в хорошем качестве Описание:Фильм по пьесе Е. Шварца "Голый король", переработанный впоследствии в сценарий «Два друга».Бродячие музыканты Ян и Жан ... 10 10 1
Торрент: Зарегистрирован [2019-05-19 10:20] · скачан: 29 раз
Статус: √ проверено
Размер: 1.09 GB
Как cкачать? Как скачать Каин XVIII через торрент | UTorrent

% Раздел Тема Автор DL S | L
Кино СССР [ 1.09 GB ] Каин XVIII | | DVDRip-AVC от AVP Studio AVP Studio Скачать
2 | 0

28-11-2019 20:33  

Отключить вcю реклaмy на сайте

    Дорогой пользователь! Огромная просьба, поблагодарите релизера, оцените раздачу и оставьте свои комментарий, если Вы скачали Каин XVIII через торрент бесплатно!!
    Комментировать посты могут только пользователи прошедшие не сложную регистрацию
    Показать сообщения:    


    Каин XVIII через торрент
    Скачать бесплатно Каин XVIII
    Каин XVIII скачать торрент
    Каин XVIII смотреть онлайн
    Cкачать фильм Каин XVIII бесплатно
    Каин XVIII скачать торрент в хорошем качестве
    Каин XVIII смотреть онлайн бесплатно в хорошем качестве
    Вы не можете начинать темы
    Вы не можете отвечать на сообщения
    Вы не можете редактировать свои сообщения
    Вы не можете удалять свои сообщения
    Вы не можете голосовать в опросах
    Вы не можете прикреплять файлы к сообщениям
    Вы можете скачивать файлы