Достать ножи: Стеклянная луковица

MVO

Добыча

Дубляж

Уэнсдэй

1 сезон

Тор

Дубляж

13 клиническая

1 сезон

Жестокая ночь

MVO

Одни из нас

1 сезон

Deluxe

pack

Рекомендуем

30

Пиратка

ВАЖНО

ВАЖНО

Ghostwire

Пиратка

jed

RePack

nioh2

RePack

RDR2

RePack

NEED FOR SPEED™ PAYBACK

RePack

скачать торрент

Кинопоиск HD

Острые козырьки 6 сезон

6 сезон

FAR CRY 6

RePack

скачать торрент

Лицензия

скачать торрент

MVO

1

1 сезон

скачать торрент

1 сезон

скачать торрент

Лицензия

  

Годзилла / Godzilla (Роланд Эммерих) [1998, Фантастика, боевик, триллер, UHD BDRemux 2160p] Дубляж [Лицензия]

Годзилла через торрент piratbit.org

Размер: 53.86 GB | Добавлен: 3 года 8 мес. назад | Торрент скачан:71 раз
Смотреть онлайн | Скачать | Поддержите нас   

20-05-2019 08:23 Годзилла Скачать торрент  

Годзилла / Godzilla««Размер имеет значение!»»

Год выпуска: 1998
Страна: США, Япония
Жанр: Фантастика, боевик, триллер
Продолжительность: 02:18:44
Перевод: Дублированный [Лицензия]
Субтитры: Русские (PGS), английские (Forced, Full, SDH, SRT)
Режиссер: Роланд Эммерих
В ролях:

Мэттью Бродерик (Dr. Niko Tatopoulos), Жан Рено (Philippe Roaché), Мария Питилло (Audrey Timmonds), Хэнк Азария (Victor «Animal» Palotti), Кевин Данн (Colonel Hicks), Майкл Лернер (Mayor Ebert), Гарри Ширер (Charles Caiman), Арабелла Филд (Lucy Palotti), Викки Льюис (Dr. Elsie Chapman), Даг Сэвант (Sergeant O'Neal), Мальколм Дэнар (Dr. Mendel Craven), Лорри Голдмен (Gene - Mayor's Aide)
Описание:
Из тихоокеанских джунглей на Нью-Йорк надвинулась страшная катастрофа. На глазах у потрясённых жителей рушатся небоскребы, переворачиваются автобусы, уходят под землю целые кварталы. Но это не ураган и не землетрясение. Это - Годзилла, самое ужасное чудовище в истории.
Рейтинг:

MPAA: PG-13 - Детям до 13 лет просмотр не желателен
Качество: UHD BDRemux 2160p
Формат: MKV
Видео: HEVC HDR, 50.0 Мбит/с, 3840x2160, 23.976 Кадр/с, 10 бит
Аудио: 48 kHz, AC3, 5.1, 640 Kbps | Дублированный Русский| Лицензия
Аудио: 48 kHz, TrueHD+Atmos , 7.1, 4138 Kbps | Оригинал | ENG
Аудио: 48 kHz, AC3, 5.1, 640 Kbps | Оригинал | ENG |
Навигация по главам: Есть

Общее
Уникальный идентификатор : 234525224095202303161320816955160592030 (0xB06FEA493AFD86DA95FFE8B61188FE9E)
Полное имя : D:\Мои раздачи\Передел\Godzilla.1998.2160p.REMUX.HEVC.x265.10bit.HDR.Master5.mkv
Формат : Matroska
Версия формата : Version 4 / Version 2
Размер файла : 53,9 Гбайт
Продолжительность : 2 ч. 18 м.
Режим общего битрейта : Переменный
Общий поток : 55,6 Мбит/сек
Название фильма : Godzilla.1998.2160p.REMUX.HEVC.x265.10bit.HDR.Master5
Дата кодирования : UTC 2019-05-20 05:26:47
Программа кодирования : mkvmerge v7.9.0 ('Birds') 64bit
Библиотека кодирования : libebml v1.3.1 + libmatroska v1.4.2
Обложка : Yes
Attachments : cover_land.jpg / small_cover.jpg / small_cover_land.jpg / cover.jpg

Видео
Идентификатор : 1
Формат : HEVC
Формат/Информация : High Efficiency Video Coding
Коммерческое название : HDR10
Профиль формата : Main 10@L5.1@High
Идентификатор кодека : V_MPEGH/ISO/HEVC
Продолжительность : 2 ч. 18 м.
Битрейт : 50,0 Мбит/сек
Ширина : 3840 пикселей
Высота : 2160 пикселей
Соотношение сторон : 16:9
Режим частоты кадров : Постоянный
Частота кадров : 23,976 (24000/1001) кадра/сек
Цветовое пространство : YUV
Субдискретизация насыщенности : 4:2:0 (Type 2)
Битовая глубина : 10 бит
Бит/(Пиксели*Кадры) : 0.252
Размер потока : 48,5 Гбайт (90%)
Заголовок : Godzilla.1998.2160p.REMUX.HEVC.x265.10bit.HDR.Master5
Язык : English
Default : Да
Forced : Нет
Цветовой диапазон : Limited
Основные цвета : BT.2020
Характеристики трансфера : PQ
Коэффициенты матрицы : BT.2020 non-constant
MasteringDisplay_ColorPrimaries : Display P3
MasteringDisplay_Luminance : min: 0.0050 cd/m2, max: 4000 cd/m2
MaxCLL : 10000 cd/m2
MaxFALL : 768 cd/m2

Аудио #1
Идентификатор : 2
Формат : TrueHD
Профиль формата : TrueHD+Atmos / TrueHD
Идентификатор кодека : A_TRUEHD
Продолжительность : 2 ч. 18 м.
Вид битрейта : Переменный
Битрейт : 4138 Кбит/сек
Максимальный битрейт : 6384 Кбит/сек
Каналы : Object Based / 8 каналов
Расположение каналов : Object Based / Front: L C R, Side: L R, Back: L R, LFE
Частота : / 48,0 КГц
Частота кадров : 1200,000 кадров/сек (40 SPF)
Метод сжатия : Без потерь
Размер потока : 4,01 Гбайт (7%)
Язык : English
Default : Нет
Forced : Нет

Аудио #2
Идентификатор : 3
Формат : AC-3
Формат/Информация : Audio Coding 3
Идентификатор кодека : A_AC3
Продолжительность : 2 ч. 18 м.
Вид битрейта : Постоянный
Битрейт : 640 Кбит/сек
Каналы : 6 каналов
Расположение каналов : Front: L C R, Side: L R, LFE
Частота : 48,0 КГц
Частота кадров : 31,250 кадров/сек (1536 SPF)
Битовая глубина : 16 бит
Метод сжатия : С потерями
Размер потока : 635 Мбайт (1%)
Язык : English
ServiceKind/String : Complete Main
Default : Нет
Forced : Нет

Аудио #3
Идентификатор : 4
Формат : AC-3
Формат/Информация : Audio Coding 3
Идентификатор кодека : A_AC3
Продолжительность : 2 ч. 18 м.
Вид битрейта : Постоянный
Битрейт : 640 Кбит/сек
Каналы : 6 каналов
Расположение каналов : Front: L C R, Side: L R, LFE
Частота : 48,0 КГц
Частота кадров : 31,250 кадров/сек (1536 SPF)
Битовая глубина : 16 бит
Метод сжатия : С потерями
Размер потока : 635 Мбайт (1%)
Язык : Russian
ServiceKind/String : Complete Main
Default : Нет
Forced : Да

Текст #1
Идентификатор : 5
Формат : UTF-8
Идентификатор кодека : S_TEXT/UTF8
Идентификатор кодека/Информация : UTF-8 Plain Text
Продолжительность : 2 ч. 12 м.
Битрейт : 48 бит/сек
ElementCount : 1322
Размер потока : 47,3 Кбайт (0%)
Заголовок : English-SRT
Язык : English
Default : Да
Forced : Нет

Текст #2
Идентификатор : 6
Формат : UTF-8
Идентификатор кодека : S_TEXT/UTF8
Идентификатор кодека/Информация : UTF-8 Plain Text
Продолжительность : 2 ч. 17 м.
Битрейт : 50 бит/сек
ElementCount : 1566
Размер потока : 50,8 Кбайт (0%)
Заголовок : English-SDH-SRT
Язык : English
Default : Нет
Forced : Нет

Текст #3
Идентификатор : 7
Формат : UTF-8
Идентификатор кодека : S_TEXT/UTF8
Идентификатор кодека/Информация : UTF-8 Plain Text
Продолжительность : 1 ч. 23 м.
Битрейт : 0 бит/сек
ElementCount : 19
Размер потока : 460 байт (0%)
Заголовок : English-FORCED-SRT
Язык : English
Default : Нет
Forced : Нет

Текст #4
Идентификатор : 8
Формат : PGS
Режим смешивания : zlib
Идентификатор кодека : S_HDMV/PGS
Идентификатор кодека/Информация : Picture based subtitle format used on BDs/HD-DVDs
Продолжительность : 2 ч. 1 м.
Битрейт : 12,0 Кбит/сек
ElementCount : 2344
Размер потока : 10,4 Мбайт (0%)
Заголовок : English-PGS
Язык : English
Default : Нет
Forced : Нет

Текст #5
Идентификатор : 9
Формат : PGS
Режим смешивания : zlib
Идентификатор кодека : S_HDMV/PGS
Идентификатор кодека/Информация : Picture based subtitle format used on BDs/HD-DVDs
Продолжительность : 2 ч. 17 м.
Битрейт : 13,0 Кбит/сек
ElementCount : 3142
Размер потока : 12,8 Мбайт (0%)
Заголовок : English-SDH-PGS
Язык : English
Default : Нет
Forced : Нет

Текст #6
Идентификатор : 10
Формат : PGS
Режим смешивания : zlib
Идентификатор кодека : S_HDMV/PGS
Идентификатор кодека/Информация : Picture based subtitle format used on BDs/HD-DVDs
Продолжительность : 2 ч. 1 м.
Битрейт : 11,4 Кбит/сек
ElementCount : 2090
Размер потока : 9,93 Мбайт (0%)
Заголовок : English-PGS
Язык : English
Default : Нет
Forced : Нет

Текст #7
Идентификатор : 11
Формат : PGS
Режим смешивания : zlib
Идентификатор кодека : S_HDMV/PGS
Идентификатор кодека/Информация : Picture based subtitle format used on BDs/HD-DVDs
Продолжительность : 2 ч. 17 м.
Битрейт : 11,9 Кбит/сек
ElementCount : 2949
Размер потока : 11,8 Мбайт (0%)
Заголовок : English-SDH-PGS
Язык : English
Default : Нет
Forced : Нет

Текст #8
Идентификатор : 12
Формат : PGS
Режим смешивания : zlib
Идентификатор кодека : S_HDMV/PGS
Идентификатор кодека/Информация : Picture based subtitle format used on BDs/HD-DVDs
Продолжительность : 2 ч. 8 м.
Битрейт : 8272 бит/сек
ElementCount : 1714
Размер потока : 7,59 Мбайт (0%)
Заголовок : Russian-PGS
Язык : Russian
Default : Нет
Forced : Нет

Меню
00:00:00.000 : en:Chapter 01
00:07:48.176 : en:Chapter 02
00:17:25.085 : en:Chapter 03
00:25:28.151 : en:Chapter 04
00:36:53.711 : en:Chapter 05
00:41:48.047 : en:Chapter 06
00:48:19.730 : en:Chapter 07
01:01:35.942 : en:Chapter 08
01:11:05.886 : en:Chapter 09
01:21:38.310 : en:Chapter 10
01:30:26.212 : en:Chapter 11
01:39:13.822 : en:Chapter 12
01:50:23.867 : en:Chapter 13
01:52:28.658 : en:Chapter 14
02:00:36.771 : en:Chapter 15
02:05:56.882 : en:Chapter 16



Скачать Годзилла через торрент https://d.radikal.ru/d35/1905/38/511e0fab5c1c.png Скачать, смотреть онлайн Годзилла бесплантно в хорошем качестве Описание: Из тихоокеанских джунглей на Нью-Йорк надвинулась страшная катастрофа. На глазах у потрясённых жителей рушатся небоскребы, ... 10 10 2
Торрент: Зарегистрирован [2019-05-20 08:23] · скачан: 71 раз
Статус: √ проверено
Размер: 53.86 GB
Как cкачать? Как скачать Годзилла через торрент | UTorrent

% Раздел Тема Автор DL S | L
? Фильмы (HD 720p, 1080p) (48-60 fps) [ 4.06 GB ] Годзилла / Godzilla | MVO | 720p / 60 FPS alien2015 Скачать
2 | 0
Фильмы (HD 720p, 1080p) (48-60 fps) [ 4.81 GB ] Годзилла / Godzilla | Дубляж | 720p / 60 FPS slaventi-69 Скачать
1 | 0
Ultra HD (UHD: 2K, 4K, 8K) [ 37.86 GB ] Годзилла / Godzilla | DUB + 2xMVO + 2xAVO | 2160p sheker187 Скачать
1 | 0
Ultra HD (UHD: 2K, 4K, 8K) [ 78.07 GB ] Годзилла / Godzilla | Лицензия | 2160p sheker187 Скачать
1 | 0
Фильмы [HD 720p, 1080p] (Хороший звук DUB, MVO) [ 11.48 GB ] Годзилла / Godzilla | Лицензия | 1080p,Профессиональный [Дубляж - Лицензия flatro1 Скачать
1 | 0
Фильмы до 2000 г. [ 2.18 GB ] Годзилла / Godzilla | MVO | HDRip-AVC, MVO, AVO, SUB кэп Скачать
1 | 0



Последний раз редактировалось: sheker187 (2019-05-21 02:06), всего редактировалось 1 раз

28-11-2019 20:33  


Отключить вcю реклaмy на сайте, в т.ч. и в плеере онлайн просмотра!

    Дорогой пользователь! Огромная просьба, поблагодарите релизера, оцените раздачу и оставьте свои комментарий, если Вы скачали Годзилла через торрент бесплатно!!
    Комментировать посты могут только пользователи прошедшие не сложную регистрацию
    Показать сообщения:    


    Годзилла через торрент
    Скачать бесплатно Годзилла
    Годзилла скачать торрент
    Годзилла смотреть онлайн
    Cкачать фильм Годзилла бесплатно
    Годзилла скачать торрент в хорошем качестве
    Годзилла смотреть онлайн бесплатно в хорошем качестве
    Вы не можете начинать темы
    Вы не можете отвечать на сообщения
    Вы не можете редактировать свои сообщения
    Вы не можете удалять свои сообщения
    Вы не можете голосовать в опросах
    Вы не можете прикреплять файлы к сообщениям
    Вы можете скачивать файлы
    Годзилла / Godzilla [1998, Фантастика, боевик, триллер, UHD BDRemux 2160p] Дубляж [Лицензия] смотреть онлайн, скачать торрент picoco.icu