Достать ножи: Стеклянная луковица

MVO

Добыча

Дубляж

Уэнсдэй

1 сезон

Тор

Дубляж

13 клиническая

1 сезон

Жестокая ночь

MVO

Одни из нас

1 сезон

Deluxe

pack

Рекомендуем

30

Пиратка

ВАЖНО

ВАЖНО

Ghostwire

Пиратка

jed

RePack

nioh2

RePack

RDR2

RePack

NEED FOR SPEED™ PAYBACK

RePack

скачать торрент

Кинопоиск HD

Острые козырьки 6 сезон

6 сезон

FAR CRY 6

RePack

скачать торрент

Лицензия

скачать торрент

MVO

1

1 сезон

скачать торрент

1 сезон

скачать торрент

Лицензия

  

Годзилла / Godzilla (Роланд Эммерих) [1998, Фантастика, боевик, триллер, UHD BDRip 2160p] Дубляж + 2xMVO + 2xAVO

Годзилла через торрент piratbit.org

Размер: 37.86 GB | Добавлен: 3 года 8 мес. назад | Торрент скачан:10 раз
Смотреть онлайн | Скачать | Поддержите нас   

20-05-2019 15:16 Годзилла Скачать торрент  

Годзилла / Godzilla««Размер имеет значение!»»

Год выпуска: 1998
Страна: США, Япония
Жанр: Фантастика, боевик, триллер
Продолжительность: 02:18:44
Перевод: Дублированный, профессиональный многоголосый, авторский
Субтитры: Русские(forced, full), английские, украинские
Режиссер: Роланд Эммерих
В ролях:

Мэттью Бродерик (Dr. Niko Tatopoulos), Жан Рено (Philippe Roaché), Мария Питилло (Audrey Timmonds), Хэнк Азария (Victor «Animal» Palotti), Кевин Данн (Colonel Hicks), Майкл Лернер (Mayor Ebert), Гарри Ширер (Charles Caiman), Арабелла Филд (Lucy Palotti), Викки Льюис (Dr. Elsie Chapman), Даг Сэвант (Sergeant O'Neal), Мальколм Дэнар (Dr. Mendel Craven), Лорри Голдмен (Gene - Mayor's Aide)
Описание:
Из тихоокеанских джунглей на Нью-Йорк надвинулась страшная катастрофа. На глазах у потрясённых жителей рушатся небоскребы, переворачиваются автобусы, уходят под землю целые кварталы. Но это не ураган и не землетрясение. Это - Годзилла, самое ужасное чудовище в истории.
Рейтинг:

MPAA: PG-13 - Детям до 13 лет просмотр не желателен
Качество: UHD BDRip 2160p
Формат: MKV
Видео: HEVC HDR, 33.9 Мбит/с, 3840x1600, 23.976 кадр/с
Аудио #1: 48 kHz, AC3, 6ch, ~640.00 kbps avg /RUS/ Дубляж, Blu-ray CEE
Аудио #2: 48 kHz, AC3, 2ch, ~192.00 kbps avg /RUS/ Многоголосый закадровый, ОРТ
Аудио #3: 48 kHz, AC3, 2ch, ~192.00 kbps avg /RUS/ Многоголосый закадровый, Видеосервис
Аудио #4: 48 kHz, DTS, 6ch, ~1510.00 kbps avg /RUS/ Одноголосый закадровый, Андрей Гаврилов
Аудио #5: 48 kHz, DTS, 6ch, ~1510.00 kbps avg /RUS/ Одноголосый закадровый, Юрий Живов
Аудио #6: 48 kHz, AC3, 6ch, ~448.00 kbps avg /UKR/ Многоголосый закадровый, K1
Аудио #7: 48 kHz, AC3, 6ch, ~640.00 kbps avg /ENG/ Оригинал
Навигация по главам: Есть

Complete name : E:\Movies\Godzilla.1998.2160p.UHD.BluRay.X265.10bit.HDR.SpaceHD13.mkv
Format : Matroska
Format version : Version 4
File size : 37.9 GiB
Duration : 2 h 18 min
Overall bit rate : 39.1 Mb/s
Movie name : Godzilla.1998.2160p.UHD.BluRay.X265.10bit.HDR.SpaceHD13
Encoded date : UTC 2019-05-20 12:07:00
Writing application : mkvmerge v34.0.0 ('Sight and Seen') 64-bit
Writing library : libebml v1.3.7 + libmatroska v1.5.0
Attachments : poster.png

Video
ID : 1
Format : HEVC
Format/Info : High Efficiency Video Coding
Format profile : Main 10@L5.1@High
HDR format : SMPTE ST 2086, HDR10 compatible
Codec ID : V_MPEGH/ISO/HEVC
Duration : 2 h 18 min
Bit rate : 33.9 Mb/s
Width : 3 840 pixels
Height : 1 600 pixels
Display aspect ratio : 2.40:1
Frame rate mode : Constant
Frame rate : 23.976 (24000/1001) FPS
Color space : YUV
Chroma subsampling : 4:2:0 (Type 2)
Bit depth : 10 bits
Bits/(Pixel*Frame) : 0.230
Stream size : 32.9 GiB (87%)
Title : Godzilla.1998.2160p.UHD.BluRay.X265.10bit.HDR.SpaceHD13
Writing library : x265 3.0_Au+21-bac0e1acb874:[Windows][GCC 6.3.0][64 bit] 10bit
Encoding settings : cpuid=1176575 / frame-threads=5 / numa-pools=36 / wpp / no-pmode / no-pme / no-psnr / no-ssim / log-level=2 / input-csp=1 / input-res=3840x1600 / interlace=0 / total-frames=199560 / level-idc=51 / high-tier=1 / uhd-bd=0 / ref=4 / no-allow-non-conformance / repeat-headers / annexb / aud / hrd / info / hash=0 / no-temporal-layers / no-open-gop / min-keyint=1 / keyint=24 / gop-lookahead=0 / bframes=4 / b-adapt=2 / b-pyramid / bframe-bias=0 / rc-lookahead=25 / lookahead-slices=4 / scenecut=40 / radl=0 / no-splice / no-intra-refresh / ctu=64 / min-cu-size=8 / rect / no-amp / max-tu-size=32 / tu-inter-depth=1 / tu-intra-depth=1 / limit-tu=0 / rdoq-level=2 / dynamic-rd=0.00 / no-ssim-rd / signhide / no-tskip / nr-intra=0 / nr-inter=0 / no-constrained-intra / no-strong-intra-smoothing / max-merge=3 / limit-refs=3 / limit-modes / me=3 / subme=3 / merange=57 / temporal-mvp / weightp / no-weightb / no-analyze-src-pics / deblock=-3:-3 / no-sao / no-sao-non-deblock / rd=4 / no-early-skip / rskip / no-fast-intra / no-tskip-fast / no-cu-lossless / no-b-intra / no-splitrd-skip / rdpenalty=0 / psy-rd=2.00 / psy-rdoq=1.00 / no-rd-refine / no-lossless / cbqpoffs=0 / crqpoffs=0 / rc=crf / crf=18.0 / qcomp=0.60 / qpstep=4 / stats-write=0 / stats-read=0 / vbv-maxrate=160000 / vbv-bufsize=160000 / vbv-init=0.9 / crf-max=0.0 / crf-min=0.0 / ipratio=1.40 / pbratio=1.30 / aq-mode=2 / aq-strength=1.00 / cutree / zone-count=0 / no-strict-cbr / qg-size=32 / no-rc-grain / qpmax=69 / qpmin=0 / no-const-vbv / sar=1 / overscan=0 / videoformat=5 / range=0 / colorprim=9 / transfer=16 / colormatrix=9 / chromaloc=1 / chromaloc-top=2 / chromaloc-bottom=2 / display-window=0 / master-display=G(13250,34500)B(7500,3000)R(34000,16000)WP(15635,16450)L(40000000,50) / max-cll=10000,768 / min-luma=0 / max-luma=1023 / log2-max-poc-lsb=8 / vui-timing-info / vui-hrd-info / slices=1 / no-opt-qp-pps / no-opt-ref-list-length-pps / no-multi-pass-opt-rps / scenecut-bias=0.05 / no-opt-cu-delta-qp / no-aq-motion / hdr / hdr-opt / no-dhdr10-opt / no-idr-recovery-sei / analysis-reuse-level=5 / scale-factor=0 / refine-intra=0 / refine-inter=0 / refine-mv=0 / refine-ctu-distortion=0 / no-limit-sao / ctu-info=0 / no-lowpass-dct / refine-analysis-type=0 / copy-pic=1 / max-ausize-factor=1.0 / no-dynamic-refine / no-single-sei / no-hevc-aq / no-svt / qp-adaptation-range=1.00
Language : Russian
Default : Yes
Forced : No
Color range : Limited
Color primaries : BT.2020
Transfer characteristics : PQ
Matrix coefficients : BT.2020 non-constant
Mastering display color pri : Display P3
Mastering display luminance : min: 0.0050 cd/m2, max: 4000 cd/m2
Maximum Content Light Level : 10000 cd/m2
Maximum Frame-Average Light : 768 cd/m2

Audio #1
ID : 2
Format : AC-3
Format/Info : Audio Coding 3
Commercial name : Dolby Digital
Codec ID : A_AC3
Duration : 2 h 18 min
Bit rate mode : Constant
Bit rate : 640 kb/s
Channel(s) : 6 channels
Channel layout : L R C LFE Ls Rs
Sampling rate : 48.0 kHz
Frame rate : 31.250 FPS (1536 SPF)
Bit depth : 16 bits
Compression mode : Lossy
Stream size : 635 MiB (2%)
Title : Дубляж, Blu-ray CEE
Language : Russian
Service kind : Complete Main
Default : Yes
Forced : No

Audio #2
ID : 3
Format : AC-3
Format/Info : Audio Coding 3
Commercial name : Dolby Digital
Codec ID : A_AC3
Duration : 2 h 18 min
Bit rate mode : Constant
Bit rate : 192 kb/s
Channel(s) : 2 channels
Channel layout : L R
Sampling rate : 48.0 kHz
Frame rate : 31.250 FPS (1536 SPF)
Bit depth : 16 bits
Compression mode : Lossy
Stream size : 190 MiB (0%)
Title : MVO, ORT
Language : Russian
Service kind : Complete Main
Default : No
Forced : No

Audio #3
ID : 4
Format : AC-3
Format/Info : Audio Coding 3
Commercial name : Dolby Digital
Codec ID : A_AC3
Duration : 2 h 18 min
Bit rate mode : Constant
Bit rate : 192 kb/s
Channel(s) : 2 channels
Channel layout : L R
Sampling rate : 48.0 kHz
Frame rate : 31.250 FPS (1536 SPF)
Bit depth : 16 bits
Compression mode : Lossy
Stream size : 190 MiB (0%)
Title : MVO, Videoservice
Language : Russian
Service kind : Complete Main
Default : No
Forced : No

Audio #4
ID : 5
Format : DTS
Format/Info : Digital Theater Systems
Codec ID : A_DTS
Duration : 2 h 18 min
Bit rate mode : Constant
Bit rate : 1 510 kb/s
Channel(s) : 6 channels
Channel layout : C L R Ls Rs LFE
Sampling rate : 48.0 kHz
Frame rate : 93.750 FPS (512 SPF)
Bit depth : 24 bits
Compression mode : Lossy
Stream size : 1.46 GiB (4%)
Title : AVO, A.Gavrilov
Language : Russian
Default : No
Forced : No

Audio #5
ID : 6
Format : DTS
Format/Info : Digital Theater Systems
Codec ID : A_DTS
Duration : 2 h 18 min
Bit rate mode : Constant
Bit rate : 1 510 kb/s
Channel(s) : 6 channels
Channel layout : C L R Ls Rs LFE
Sampling rate : 48.0 kHz
Frame rate : 93.750 FPS (512 SPF)
Bit depth : 24 bits
Compression mode : Lossy
Stream size : 1.46 GiB (4%)
Title : AVO, Y.Jivov
Language : Russian
Default : No
Forced : No

Audio #6
ID : 7
Format : AC-3
Format/Info : Audio Coding 3
Commercial name : Dolby Digital
Codec ID : A_AC3
Duration : 2 h 18 min
Bit rate mode : Constant
Bit rate : 448 kb/s
Channel(s) : 6 channels
Channel layout : L R C LFE Ls Rs
Sampling rate : 48.0 kHz
Frame rate : 31.250 FPS (1536 SPF)
Bit depth : 16 bits
Compression mode : Lossy
Stream size : 444 MiB (1%)
Title : MVO, K1
Language : Ukrainian
Service kind : Complete Main
Default : No
Forced : No

Audio #7
ID : 8
Format : AC-3
Format/Info : Audio Coding 3
Commercial name : Dolby Digital
Codec ID : A_AC3
Duration : 2 h 18 min
Bit rate mode : Constant
Bit rate : 640 kb/s
Channel(s) : 6 channels
Channel layout : L R C LFE Ls Rs
Sampling rate : 48.0 kHz
Frame rate : 31.250 FPS (1536 SPF)
Bit depth : 16 bits
Compression mode : Lossy
Stream size : 635 MiB (2%)
Title : Original
Language : English
Service kind : Complete Main
Default : No
Forced : No

Text #1
ID : 9
Format : UTF-8
Codec ID : S_TEXT/UTF8
Codec ID/Info : UTF-8 Plain Text
Duration : 2 h 5 min
Bit rate : 2 b/s
Count of elements : 47
Stream size : 1.97 KiB (0%)
Title : forced
Language : Russian
Default : Yes
Forced : No

Text #2
ID : 10
Format : UTF-8
Codec ID : S_TEXT/UTF8
Codec ID/Info : UTF-8 Plain Text
Duration : 2 h 1 min
Bit rate : 67 b/s
Count of elements : 1125
Stream size : 59.8 KiB (0%)
Title : full
Language : Russian
Default : No
Forced : No

Text #3
ID : 11
Format : PGS
Muxing mode : zlib
Codec ID : S_HDMV/PGS
Codec ID/Info : Picture based subtitle format used on BDs/HD-DVDs
Duration : 2 h 8 min
Bit rate : 19.4 kb/s
Count of elements : 1714
Stream size : 17.8 MiB (0%)
Title : Blu-ray EUR
Language : Russian
Default : No
Forced : No

Text #4
ID : 12
Format : UTF-8
Codec ID : S_TEXT/UTF8
Codec ID/Info : UTF-8 Plain Text
Duration : 2 h 17 min
Bit rate : 50 b/s
Count of elements : 850
Stream size : 51.4 KiB (0%)
Language : Ukrainian
Default : No
Forced : No

Text #5
ID : 13
Format : PGS
Muxing mode : zlib
Codec ID : S_HDMV/PGS
Codec ID/Info : Picture based subtitle format used on BDs/HD-DVDs
Duration : 2 h 17 min
Bit rate : 17.5 kb/s
Count of elements : 1700
Stream size : 17.3 MiB (0%)
Title : Blu-ray EUR
Language : Ukrainian
Default : No
Forced : No

Text #6
ID : 14
Format : UTF-8
Codec ID : S_TEXT/UTF8
Codec ID/Info : UTF-8 Plain Text
Duration : 2 h 1 min
Bit rate : 49 b/s
Count of elements : 1042
Stream size : 43.7 KiB (0%)
Language : English
Default : No
Forced : No

Text #7
ID : 15
Format : PGS
Muxing mode : zlib
Codec ID : S_HDMV/PGS
Codec ID/Info : Picture based subtitle format used on BDs/HD-DVDs
Duration : 2 h 1 min
Bit rate : 27.7 kb/s
Count of elements : 2344
Stream size : 24.1 MiB (0%)
Language : English
Default : No
Forced : No

Menu
00:00:00.000 : :Глава 01
00:07:48.426 : :Глава 02
00:17:25.461 : :Глава 03
00:25:28.235 : :Глава 04
00:36:53.836 : :Глава 05
00:41:48.214 : :Глава 06
00:48:19.730 : :Глава 07
01:01:35.942 : :Глава 08
01:11:06.095 : :Глава 09
01:21:38.685 : :Глава 10
01:30:26.212 : :Глава 11
01:39:14.156 : :Глава 12
01:50:24.159 : :Глава 13
01:52:28.658 : :Глава 14
02:00:36.771 : :Глава 15
02:05:56.882 : :Глава 16



Скачать Годзилла через торрент https://d.radikal.ru/d35/1905/38/511e0fab5c1c.png Скачать, смотреть онлайн Годзилла бесплантно в хорошем качестве Описание: Из тихоокеанских джунглей на Нью-Йорк надвинулась страшная катастрофа. На глазах у потрясённых жителей рушатся небоскребы, ... 10 10 4
Торрент: Зарегистрирован [2019-05-20 15:16] · скачан: 10 раз
Статус: √ проверено
Размер: 37.86 GB
Как cкачать? Как скачать Годзилла через торрент | UTorrent

28-11-2019 20:33  


Отключить вcю реклaмy на сайте, в т.ч. и в плеере онлайн просмотра!

    Дорогой пользователь! Огромная просьба, поблагодарите релизера, оцените раздачу и оставьте свои комментарий, если Вы скачали Годзилла через торрент бесплатно!!
    Комментировать посты могут только пользователи прошедшие не сложную регистрацию
    Показать сообщения:    


    Годзилла через торрент
    Скачать бесплатно Годзилла
    Годзилла скачать торрент
    Годзилла смотреть онлайн
    Cкачать фильм Годзилла бесплатно
    Годзилла скачать торрент в хорошем качестве
    Годзилла смотреть онлайн бесплатно в хорошем качестве
    Вы не можете начинать темы
    Вы не можете отвечать на сообщения
    Вы не можете редактировать свои сообщения
    Вы не можете удалять свои сообщения
    Вы не можете голосовать в опросах
    Вы не можете прикреплять файлы к сообщениям
    Вы можете скачивать файлы
    Годзилла / Godzilla [1998, Фантастика, боевик, триллер, UHD BDRip 2160p] Дубляж + 2xMVO + 2xAVO смотреть онлайн, скачать торрент picoco.icu