Достать ножи: Стеклянная луковица

MVO

Добыча

Дубляж

Уэнсдэй

1 сезон

Тор

Дубляж

13 клиническая

1 сезон

Жестокая ночь

MVO

Одни из нас

1 сезон

Deluxe

pack

Рекомендуем

30

Пиратка

ВАЖНО

ВАЖНО

Ghostwire

Пиратка

jed

RePack

nioh2

RePack

RDR2

RePack

NEED FOR SPEED™ PAYBACK

RePack

скачать торрент

Кинопоиск HD

Острые козырьки 6 сезон

6 сезон

FAR CRY 6

RePack

скачать торрент

Лицензия

скачать торрент

MVO

1

1 сезон

скачать торрент

1 сезон

скачать торрент

Лицензия

  

Тень / Ying (Чжан Имоу) [2018, драма, боевик, UHD BDRemux 2160p] Дубляж [iTunes] + MVO [HDRezka]

Тень через торрент piratbit.org

Размер: 50.41 GB | Добавлен: 3 года 8 мес. назад | Торрент скачан:49 раз
Смотреть онлайн | Скачать | Поддержите нас   

21-05-2019 02:00 Тень Скачать торрент  

Тень / Ying

Год выпуска: 2018
Страна: Китай, Гонконг
Жанр: драма, боевик
Продолжительность: 01:55:58
Перевод: Дублированный, Профессиональный многоголосый
Субтитры: Русские (full), английские (full)
Режиссер: Чжан Имоу
В ролях:

Ден Чао (Commander Zi Yu / Jing Zhou), Сунь Ли (Madam Xiao Ai, wife of Commander), Чжэн Кай (Pei Liang, the King of Pei), Ван Цяньюань (Captain Tian Zhan), Ван Цзинчунь (Minister Lu Yan), Ху Цзюнь (General Yang Cang), Гуань Сяотун (The Princess Qing Ping, King's sister), У Лэй (Yang Ping, general Yang's son), Фэн Бай
Описание:
Эпоха Троецарствия. Без ведома короля командующий Цзы Юй вызвал на дуэль генерала Яна, который захватил и удерживает город государства Пэй. Из-за своенравия командующий попадет в немилость правителя и лишается привилегий, но свою затею не оставляет. Только жена умирающего Юя знает, что вместо супруга уже целый год действует Тень, ещё с детства специально обученный двойник, а сам Юй сидит взаперти и строит коварные планы.
Рейтинг:

Качество: UHD BDRemux 2160p
Формат: MKV
Видео: H.265/HEVC HDR, 3840x2160, 56.3 Mbps, 24.000 fps
Аудио 1: AC3, 6 ch, 384 kbps - Русский (Дубляж, iTunes)
Аудио 2: AC3, 2 ch, 192 kbps - Русский (MVO, HDRezka)
Аудио 3: Atmos TrueHD, 8 ch, 4 686 kbps - Китайский
Аудио 4: AC3, 6 ch, 640 kbps - Китайский
Навигация по главам: есть

Релиз от:
General
Unique ID : 4573517581158551994952111958663202391 (0x370D3D38180C5C2B2C23FD36D2D8657)
Complete name : Ying.2018.BDRemux.2160p.HDR.TeamHD.mkv
Format : Matroska
Format version : Version 4
File size : 50.4 GiB
Duration : 1 h 55 min
Overall bit rate mode : Variable
Overall bit rate : 62.2 Mb/s
Movie name : Ying.2018.BDRemux.2160p.HDR by Silverok
Encoded date : UTC 2019-05-20 07:42:00
Writing application : mkvmerge v34.0.0 ('Sight and Seen') 64-bit
Writing library : libebml v1.3.7 + libmatroska v1.5.0
Cover : Yes
Attachments : cover.jpg

Video
ID : 1
Format : HEVC
Format/Info : High Efficiency Video Coding
Format profile : Main 10@L5.1@High
HDR format : SMPTE ST 2086, HDR10 compatible
Codec ID : V_MPEGH/ISO/HEVC
Duration : 1 h 55 min
Bit rate : 56.3 Mb/s
Width : 3 840 pixels
Height : 2 160 pixels
Display aspect ratio : 16:9
Frame rate mode : Constant
Frame rate : 24.000 FPS
Standard : Component
Color space : YUV
Chroma subsampling : 4:2:0 (Type 2)
Bit depth : 10 bits
Bits/(Pixel*Frame) : 0.283
Stream size : 45.6 GiB (90%)
Title : BDRemux.2160p.HDR by Silverok
Default : Yes
Forced : No
Color range : Limited
Color primaries : BT.2020
Transfer characteristics : PQ
Matrix coefficients : BT.2020 non-constant
Mastering display color pri : BT.2020
Mastering display luminance : min: 0.0000 cd/m2, max: 9000 cd/m2
Maximum Content Light Level : 4570 cd/m2
Maximum Frame-Average Light : 607 cd/m2

Audio #1
ID : 2
Format : AC-3
Format/Info : Audio Coding 3
Commercial name : Dolby Digital
Codec ID : A_AC3
Duration : 1 h 55 min
Bit rate mode : Constant
Bit rate : 384 kb/s
Channel(s) : 6 channels
Channel layout : L R C LFE Ls Rs
Sampling rate : 48.0 kHz
Frame rate : 31.250 FPS (1536 SPF)
Bit depth : 16 bits
Compression mode : Lossy
Stream size : 318 MiB (1%)
Title : Дублированный | iTunes |
Language : Russian
Service kind : Complete Main
Default : Yes
Forced : No

Audio #2
ID : 3
Format : AC-3
Format/Info : Audio Coding 3
Commercial name : Dolby Digital
Codec ID : A_AC3
Duration : 1 h 55 min
Bit rate mode : Constant
Bit rate : 192 kb/s
Channel(s) : 2 channels
Channel layout : L R
Sampling rate : 48.0 kHz
Frame rate : 31.250 FPS (1536 SPF)
Bit depth : 16 bits
Compression mode : Lossy
Stream size : 159 MiB (0%)
Title : Профессиональный многоголосый, закадровый [HDRezka]
Language : Russian
Service kind : Complete Main
Default : No
Forced : No

Audio #3
ID : 4
Format : MLP FBA 16-ch
Format/Info : Meridian Lossless Packing FBA with 16-channel presentation
Commercial name : Dolby TrueHD with Dolby Atmos
Codec ID : A_TRUEHD
Duration : 1 h 55 min
Bit rate mode : Variable
Bit rate : 4 686 kb/s
Maximum bit rate : 7 278 kb/s
Channel(s) : 8 channels
Channel layout : L R C LFE Ls Rs Lb Rb
Sampling rate : 48.0 kHz
Frame rate : 1 200.000 FPS (40 SPF)
Compression mode : Lossless
Stream size : 3.80 GiB (8%)
Language : Chinese
Default : No
Forced : No
Number of dynamic objects : 11
Bed channel count : 1 channel
Bed channel configuration : LFE

Audio #4
ID : 5
Format : AC-3
Format/Info : Audio Coding 3
Commercial name : Dolby Digital
Codec ID : A_AC3
Duration : 1 h 55 min
Bit rate mode : Constant
Bit rate : 640 kb/s
Channel(s) : 6 channels
Channel layout : L R C LFE Ls Rs
Sampling rate : 48.0 kHz
Frame rate : 31.250 FPS (1536 SPF)
Bit depth : 16 bits
Compression mode : Lossy
Stream size : 531 MiB (1%)
Language : Chinese
Service kind : Complete Main
Default : No
Forced : No

Text #1
ID : 6
Format : UTF-8
Codec ID : S_TEXT/UTF8
Codec ID/Info : UTF-8 Plain Text
Duration : 1 h 45 min
Bit rate : 52 b/s
Count of elements : 1050
Stream size : 40.3 KiB (0%)
Title : Full
Language : Russian
Default : Yes
Forced : No

Text #2
ID : 7
Format : UTF-8
Codec ID : S_TEXT/UTF8
Codec ID/Info : UTF-8 Plain Text
Duration : 1 h 44 min
Bit rate : 28 b/s
Count of elements : 1072
Stream size : 21.7 KiB (0%)
Title : Full
Language : English
Default : No
Forced : No

Menu
00:00:00.000 : en:Глава 01
00:12:37.708 : en:Глава 02
00:24:52.208 : en:Глава 03
00:32:30.167 : en:Глава 04
00:41:19.667 : en:Глава 05
00:50:24.875 : en:Глава 06
01:05:11.958 : en:Глава 07
01:18:52.375 : en:Глава 08
01:23:47.125 : en:Глава 09
01:27:02.958 : en:Глава 10
01:33:11.375 : en:Глава 11
01:47:58.417 : en:Глава 12



Скачать Тень через торрент https://d.radikal.ru/d16/1905/d4/4e87885e3114.png Скачать, смотреть онлайн Тень бесплантно в хорошем качестве Описание: Эпоха Троецарствия. Без ведома короля командующий Цзы Юй вызвал на дуэль генерала Яна, который захватил и удерживает город ... 10 10 5
Торрент: Зарегистрирован [2019-05-21 02:00] · скачан: 49 раз
Статус: √ проверено
Размер: 50.41 GB
Как cкачать? Как скачать Тень через торрент | UTorrent

% Раздел Тема Автор DL S | L
Азиатские фильмы [ 4.18 GB ] Тень / Ying | MVO | 1080p -Lexx- Скачать
1 | 0
Ultra HD (UHD: 2K, 4K, 8K) [ 16.09 GB ] Тень / Ying | iTunes | 2160p sheker187 Скачать
1 | 0
Азиатские фильмы [ 5.54 GB ] Тень / Ying / Shadow | iTunes | 720p bober100 Скачать
1 | 0
Азиатские фильмы [ 8.4 GB ] Тень / Ying / Shadow | iTunes | 1080p bober100 Скачать
1 | 0
Азиатские фильмы [ 1.41 GB ] Тень / Ying / Shadow | iTunes | BDRip bober100 Скачать
1 | 0
Фильмы (Blu-ray, BD-Remux, HDDVD) [ 17.12 GB ] Тень / Ying / Shadow | iTunes | BD Remux 1080p bober100 Скачать
1 | 0
# Фильмы (мультфильмы) cо спонсором показа (Новинки AVI/MKV) [ 10.57 GB ] Тень / Ying | DUB | 1080p bober100 Скачать
1 | 0

28-11-2019 20:33  


Отключить вcю реклaмy на сайте, в т.ч. и в плеере онлайн просмотра!

23-10-2019 09:06 Тень Скачать торрент  

пожалуйста встаньте на раздачу



    Дорогой пользователь! Огромная просьба, поблагодарите релизера, оцените раздачу и оставьте свои комментарий, если Вы скачали Тень через торрент бесплатно!!
    Комментировать посты могут только пользователи прошедшие не сложную регистрацию
    Показать сообщения:    


    Тень через торрент
    Скачать бесплатно Тень
    Тень скачать торрент
    Тень смотреть онлайн
    Cкачать фильм Тень бесплатно
    Тень скачать торрент в хорошем качестве
    Тень смотреть онлайн бесплатно в хорошем качестве
    Вы не можете начинать темы
    Вы не можете отвечать на сообщения
    Вы не можете редактировать свои сообщения
    Вы не можете удалять свои сообщения
    Вы не можете голосовать в опросах
    Вы не можете прикреплять файлы к сообщениям
    Вы можете скачивать файлы
    Тень / Ying [2018, драма, боевик, UHD BDRemux 2160p] Дубляж [iTunes] + MVO [HDRezka] смотреть онлайн, скачать торрент picoco.icu