Доктор Стрэндж

Лицензия

Добыча

Дубляж

Уэнсдэй

1 сезон

Тор

Дубляж

В эфире

Дубляж

Там, где раки поют

MVO

Властелин колец

1 сезон

Deluxe

pack

Рекомендуем

30

Пиратка

ВАЖНО

ВАЖНО

Ghostwire

Пиратка

jed

RePack

nioh2

RePack

RDR2

RePack

NEED FOR SPEED™ PAYBACK

RePack

скачать торрент

Кинопоиск HD

Острые козырьки 6 сезон

6 сезон

FAR CRY 6

RePack

скачать торрент

Лицензия

скачать торрент

MVO

1

1 сезон

скачать торрент

1 сезон

скачать торрент

Лицензия

  

Лето 42-го / Summer of '42 (Роберт Маллиган) [1971, мелодрама, драма, комедия, BDRip 720p ] DVO, VO

Лето 42-го через торрент piratbit.org

Размер: 5.09 GB | Добавлен: 3 года 6 мес. назад | Торрент скачан:45 раз
Смотреть онлайн | Скачать   

21-05-2019 05:29 Лето 42-го Скачать торрент  

Название: Лето 42-го
Оригинальное название: Summer of '42
Год выпуска: 1971
Страна: США
Жанр: мелодрама, драма, комедия
Продолжительность: 01:44:10
Перевод: профессиональный двухголосый, любительский одноголосый

Режиссер: Роберт Маллиган
В ролях: Дженнифер О`Нил, Гэри Граймз, Джерри Хаузер, Оливер Конент, Кэтрин Аллентак, Кристофер Норрис, Лу Фриззел, Уолтер Скотт

Описание: Трое пятнадцатилетних подростков приезжают на летние каникулы в Новую Англию. Двое из них интересуются любовными похождениями со сверстницами, а третий переживает настоящий взрослый роман с двадцатидвухлетней женщиной, муж которой отбыл на фронт. Юное сердце сталкивается с нешуточными страстями, которые заставляют его сделать непростой выбор между чувством и сочувствием, желанием и состраданием по отношению к молодой женщине, оставшейся в одиночестве и потому особо нуждающейся в нежности...



Качество: BDRip 720p
Формат: MKV
Видео: MPEG-4 AVC, 6414 Кбит/с, 1280x720
Аудио 1: русский, AC3, 192 kbps, 2 ch, 48 kHz [закадровый двухголосый, СВ дубль]
Аудио 2: русский, AC3, 192 kbps, 2 ch, 48 kHz [закадровый одноголосый, Rider]
Аудио 3: английский, AC3, 192 kbps, 2 ch, 48 kHz [оригинал]
Субтитры 1: русские (А. Наумов)
Субтитры 2: английские
Главы/чаптеры
Общее
Уникальный идентификатор : 248383211228528582572986898905411136275 (0xBADCDDCD9F7E55A6B56DB878F170AB13)
Полное имя : D:\Video\Лето 42.1971.BDRip 720p by msltel.mkv
Формат : Matroska
Версия формата : Version 4
Размер файла : 5,09 Гбайт
Продолжительность : 1 ч. 44 м.
Общий поток : 6992 Кбит/сек
Дата кодирования : UTC 2019-05-21 01:40:52
Программа кодирования : mkvmerge v8.2.0 ('World of Adventure') 64bit
Библиотека кодирования : libebml v1.3.1 + libmatroska v1.4.2

Видео
Идентификатор : 1
Формат : AVC
Формат/Информация : Advanced Video Codec
Профиль формата : High@L4.1
Настройки формата : CABAC / 9 Ref Frames
Параметр CABAC формата : Да
Параметр RefFrames формата : 9 кадров
Идентификатор кодека : V_MPEG4/ISO/AVC
Продолжительность : 1 ч. 44 м.
Битрейт : 6414 Кбит/сек
Ширина : 1280 пикселей
Высота : 720 пикселей
Соотношение сторон : 16:9
Режим частоты кадров : Постоянный
Частота кадров : 23,976 (24000/1001) кадра/сек
Цветовое пространство : YUV
Субдискретизация насыщенности : 4:2:0
Битовая глубина : 8 бит
Тип развёртки : Прогрессивная
Бит/(Пиксели*Кадры) : 0.290
Размер потока : 4,67 Гбайт (92%)
Библиотека кодирования : x264 core 157 r2935 545de2f
Настройки программы : cabac=1 / ref=9 / deblock=1:-2:-2 / analyse=0x3:0x113 / me=umh / subme=11 / psy=1 / psy_rd=1.00:0.15 / mixed_ref=1 / me_range=32 / chroma_me=1 / trellis=2 / 8x8dct=1 / cqm=0 / deadzone=21,11 / fast_pskip=0 / chroma_qp_offset=-3 / threads=6 / lookahead_threads=1 / sliced_threads=0 / nr=0 / decimate=1 / interlaced=0 / bluray_compat=0 / constrained_intra=0 / bframes=11 / b_pyramid=2 / b_adapt=2 / b_bias=0 / direct=1 / weightb=1 / open_gop=0 / weightp=2 / keyint=230 / keyint_min=23 / scenecut=40 / intra_refresh=0 / rc_lookahead=40 / rc=crf / mbtree=1 / crf=18.5 / qcomp=0.60 / qpmin=0 / qpmax=69 / qpstep=4 / vbv_maxrate=50000 / vbv_bufsize=62500 / crf_max=0.0 / nal_hrd=none / filler=0 / ip_ratio=1.40 / aq=1:1.00
Язык : English
Default : Да
Forced : Нет

Аудио #1
Идентификатор : 2
Формат : AC-3
Формат/Информация : Audio Coding 3
Коммерческое название : Dolby Digital
Идентификатор кодека : A_AC3
Продолжительность : 1 ч. 44 м.
Вид битрейта : Постоянный
Битрейт : 192 Кбит/сек
Каналы : 2 канала
ChannelLayout : L R
Частота : 48,0 КГц
Частота кадров : 31,250 кадров/сек (1536 SPF)
Битовая глубина : 16 бит
Метод сжатия : С потерями
Размер потока : 143 Мбайт (3%)
Заголовок : DVO СВ дубль
Язык : Russian
ServiceKind/String : Complete Main
Default : Да
Forced : Нет

Аудио #2
Идентификатор : 3
Формат : AC-3
Формат/Информация : Audio Coding 3
Коммерческое название : Dolby Digital
Идентификатор кодека : A_AC3
Продолжительность : 1 ч. 44 м.
Вид битрейта : Постоянный
Битрейт : 192 Кбит/сек
Каналы : 2 канала
ChannelLayout : L R
Частота : 48,0 КГц
Частота кадров : 31,250 кадров/сек (1536 SPF)
Битовая глубина : 16 бит
Метод сжатия : С потерями
Размер потока : 143 Мбайт (3%)
Заголовок : Rider
Язык : Russian
ServiceKind/String : Complete Main
Default : Нет
Forced : Нет

Аудио #3
Идентификатор : 4
Формат : AC-3
Формат/Информация : Audio Coding 3
Коммерческое название : Dolby Digital
Идентификатор кодека : A_AC3
Продолжительность : 1 ч. 44 м.
Вид битрейта : Постоянный
Битрейт : 192 Кбит/сек
Каналы : 2 канала
ChannelLayout : L R
Частота : 48,0 КГц
Частота кадров : 31,250 кадров/сек (1536 SPF)
Битовая глубина : 16 бит
Метод сжатия : С потерями
Размер потока : 143 Мбайт (3%)
Заголовок : original
Язык : English
ServiceKind/String : Complete Main
Default : Нет
Forced : Нет

Текст #1
Идентификатор : 5
Формат : UTF-8
Идентификатор кодека : S_TEXT/UTF8
Идентификатор кодека/Информация : UTF-8 Plain Text
Продолжительность : 1 ч. 42 м.
Битрейт : 79 бит/сек
ElementCount : 990
Размер потока : 59,5 Кбайт (0%)
Заголовок : русские А. Наумов
Язык : Russian
Default : Нет
Forced : Нет

Текст #2
Идентификатор : 6
Формат : UTF-8
Идентификатор кодека : S_TEXT/UTF8
Идентификатор кодека/Информация : UTF-8 Plain Text
Продолжительность : 1 ч. 40 м.
Битрейт : 42 бит/сек
ElementCount : 1367
Размер потока : 30,9 Кбайт (0%)
Заголовок : английские
Язык : English
Default : Нет
Forced : Нет

Меню
00:00:00.000 : en:Chapter 1
00:02:52.422 : en:Chapter 2
00:05:24.950 : en:Chapter 3
00:09:01.332 : en:Chapter 4
00:11:29.230 : en:Chapter 5
00:14:03.968 : en:Chapter 6
00:17:28.506 : en:Chapter 7
00:19:33.631 : en:Chapter 8
00:24:00.314 : en:Chapter 9
00:28:49.436 : en:Chapter 10
00:31:04.613 : en:Chapter 11
00:35:41.264 : en:Chapter 12
00:41:11.302 : en:Chapter 13
00:43:00.578 : en:Chapter 14
00:47:13.456 : en:Chapter 15
00:49:37.266 : en:Chapter 16
00:53:14.566 : en:Chapter 17
00:56:58.790 : en:Chapter 18
01:03:02.278 : en:Chapter 19
01:06:06.546 : en:Chapter 20
01:10:42.113 : en:Chapter 21
01:15:37.366 : en:Chapter 22
01:18:03.095 : en:Chapter 23
01:21:09.198 : en:Chapter 24
01:25:21.325 : en:Chapter 25
01:31:45.500 : en:Chapter 26
01:35:47.325 : en:Chapter 27
01:38:52.885 : en:Chapter 28
01:43:06.013 : en:Chapter 29



Скачать Лето 42-го через торрент https://a.radikal.ru/a19/1905/bb/ce5378ac3f9b.jpg Скачать, смотреть онлайн Лето 42-го бесплантно в хорошем качестве Описание: Трое пятнадцатилетних подростков приезжают на летние каникулы в Новую Англию. Двое из них интересуются любовными похождениями со ... 5 10 1
Торрент: Зарегистрирован [2019-05-21 05:29] · скачан: 45 раз
Статус: √ проверено
Размер: 5.09 GB
Как cкачать? Как скачать Лето 42-го через торрент | UTorrent

% Раздел Тема Автор DL S | L
Фильмы [HD 720p, 1080p] (Звук Cam, VO, DVO) [ 14.02 GB ] Лето 42-го / Summer of '42 | | 1080p msltel Скачать
1 | 0
R.G. Resident & PiratVoice - Фильмы, Видео [ 2.45 GB ] Лето 42-го / Summer of '42 | | BDRip-AVC, R.G.Resident Хорват Скачать
1 | 0
Фильмы до 2000 г. [ 1.45 GB ] Лето 42-го / Summer of '42 | | BDRip koenig Скачать
1 | 0

28-11-2019 20:33  


Отключить вcю реклaмy на сайте, в т.ч. и в плеере онлайн просмотра!

    Дорогой пользователь! Огромная просьба, поблагодарите релизера, оцените раздачу и оставьте свои комментарий, если Вы скачали Лето 42-го через торрент бесплатно!!
    Комментировать посты могут только пользователи прошедшие не сложную регистрацию
    Показать сообщения:    


    Лето 42-го через торрент
    Скачать бесплатно Лето 42-го
    Лето 42-го скачать торрент
    Лето 42-го смотреть онлайн
    Cкачать фильм Лето 42-го бесплатно
    Лето 42-го скачать торрент в хорошем качестве
    Лето 42-го смотреть онлайн бесплатно в хорошем качестве
    Вы не можете начинать темы
    Вы не можете отвечать на сообщения
    Вы не можете редактировать свои сообщения
    Вы не можете удалять свои сообщения
    Вы не можете голосовать в опросах
    Вы не можете прикреплять файлы к сообщениям
    Вы можете скачивать файлы
    Лето 42-го / Summer of '42 [1971, мелодрама, драма, комедия, BDRip 720p ] DVO, VO смотреть онлайн, скачать торрент picoco.icu