смотреть онлайн / скачать торрент Оппенгеймер

MVO

смотреть онлайн / скачать торрент Убийца

Дубляж

смотреть онлайн / скачать торрент Поколение «Ви»

1 сезон

Активация Call of Duty®: Modern Warfare® III

Deluxe

Активация Avatar Frontiers of Pandora ULTIMATE

Premium

Активация Atomic Heart - Annihilation Instinct

ВСЕ DLC

смотреть онлайн / скачать торрент Телохранитель на фрилансе

Дубляж

смотреть онлайн / скачать торрент Звук свободы

MVO

смотреть онлайн / скачать торрент Ведьмак / The Witcher / Сезон: 3

3 сезон

смотреть онлайн / скачать торрент Стражи Галактики. Часть 3

Дубляж

Рекомендуем

Рекомендуем

ВАЖНО

ВАЖНО

скачать торрент Lords of the Fallen

Steam-Rip

ARMORED CORE™ VI FIRES OF RUBICON™

Steam-Rip

jed

RePack

PAYDAY 3

Пиратка

RDR2

RePack

Hogwarts Legacy

Steam-Rip

смотреть онлайн / скачать торрент Захваченный

Невафильм

смотреть онлайн / скачать торрент Острые козырьки 6 сезон

6 сезон

FAR CRY 6

RePack

скачать торрент Dead Island™ 2

EGS-Rip

скачать торрент The Quarry

Steam-Rip

  

Зеленая книга / Green Book (Питер Фаррелли) [2018, комедия, драма, биография, UHD BDRip 2160p] [SDR] Дубляж (rus, ukr) [Blu-ray CEE] + MVO [HDRezka]

Зеленая книга через торрент piratbit.org

Размер: 42.32 GB | Добавлен: 4 года 6 мес. назад | Торрент скачан:20 раз
XBOX GAME PASS [PC] +400 игр (13 мес)

2019-05-22 15:26 Зеленая книга Скачать торрент  

Зеленая книга / Green Book««Inspired by a True Friendship»»

Год выпуска: 2018
Страна: США
Жанр: комедия, драма, биография
Продолжительность: 02:10:07
Перевод: Дублированный, профессиональный многоголосый
Субтитры: Русские (Forced, full), английские (SDH)
Режиссер: Питер Фаррелли
В ролях:

Вигго Мортенсен (Tony Lip), Махершала Али (Dr. Don Shirley), Линда Карделлини (Dolores), Себастьян Манискалко (Johnny Venere), Димитар Маринов (Oleg), Майк Хаттон (George), П.Дж. Бирн (Record Exec), Джозеф Кортезе (Gio Loscudo), Мэгги Никсон (Copa Coat Check Girl), Фон Льюис (Bobby Rydell), Джон Сортлэнд (Rydell Band Leader), Дон Старк (Jules Podell)
Описание:
1960-е годы. После закрытия нью-йоркского ночного клуба на ремонт вышибала Тони по прозвищу Болтун ищет подработку на пару месяцев. Как раз в это время Дон Ширли, утонченный светский лев, богатый и талантливый чернокожий музыкант, исполняющий классическую музыку, собирается в турне по южным штатам, где ещё сильны расистские убеждения и царит сегрегация. Он нанимает Тони в качестве водителя, телохранителя и человека, способного решать текущие проблемы. У этих двоих так мало общего, и эта поездка навсегда изменит жизнь обоих.
Рейтинг:

MPAA: PG-13 - Детям до 13 лет просмотр не желателен
Качество: UHD BDRip 2160p | SDR
Формат: MKV
Видео: HEVC, 39.5 Мбит/с, 3840x1918, 23.976 кадр/с, 10-бит
Аудио: DTS, 48 kHz, 6 ch, 1510.00 kbps avg | русский | Лицензия
Аудио: AC3, 48 kHz, 6 ch, 640.00 kbps avg | русский | Лицензия
Аудио: AC3, 48 kHz, 2 ch, 192.00 kbps avg | русский | HDRezka
Аудио: AC3, 48 kHz, 6 ch, 448.00 kbps avg | украинский | Лицензия
Аудио: TrueHD, 48 kHz, 8 ch, 3784.00 kbps avg | английский | Оригинал
Аудио: AC3, 48 kHz, 6 ch, 448.00 kbps avg | английский | Оригинал
Навигация по главам: есть

Общее
Уникальный идентификатор : 216889149513962984550530544677533498174 (0xA32B54AD17591B2DB89A39B143B3BB3E)
Полное имя : D:\Мои раздачи\Передел\Green.Book.2018.BDRip.2160p.x265.10bit.HEVC.SDR.Master5.mkv
Формат : Matroska
Версия формата : Version 4 / Version 2
Размер файла : 42,3 Гбайт
Продолжительность : 2 ч. 10 м.
Режим общего битрейта : Переменный
Общий поток : 46,6 Мбит/сек
Название фильма : Green.Book.2018.BDRip.2160p.x265.10bit.HEVC.SDR.Master5
Дата кодирования : UTC 2019-05-22 09:54:43
Программа кодирования : mkvmerge v7.9.0 ('Birds') 64bit
Библиотека кодирования : libebml v1.3.1 + libmatroska v1.4.2
Обложка : Yes
Attachments : cover.jpg

Видео
Идентификатор : 1
Формат : HEVC
Формат/Информация : High Efficiency Video Coding
Профиль формата : Main [email protected]@High
Идентификатор кодека : V_MPEGH/ISO/HEVC
Продолжительность : 2 ч. 10 м.
Битрейт : 39,5 Мбит/сек
Ширина : 3840 пикселей
Высота : 1918 пикселей
Соотношение сторон : 2,002
Режим частоты кадров : Постоянный
Частота кадров : 23,976 (24000/1001) кадра/сек
Цветовое пространство : YUV
Субдискретизация насыщенности : 4:2:0
Битовая глубина : 10 бит
Бит/(Пиксели*Кадры) : 0.224
Размер потока : 35,9 Гбайт (85%)
Заголовок : Green.Book.2018.BDRip.2160p.x265.10bit.HEVC.SDR.Master5
Библиотека кодирования : x265 3.0+1-ed72af837053:[Windows][GCC 8.2.0][64 bit] 10bit
Настройки программы : cpuid=1111039 / frame-threads=16 / numa-pools=24,24,24,24 / wpp / no-pmode / no-pme / no-psnr / no-ssim / log-level=2 / input-csp=1 / input-res=3840x1918 / interlace=0 / total-frames=187109 / level-idc=51 / high-tier=1 / uhd-bd=0 / ref=3 / no-allow-non-conformance / repeat-headers / annexb / aud / hrd / info / hash=0 / no-temporal-layers / no-open-gop / min-keyint=1 / keyint=24 / gop-lookahead=0 / bframes=4 / b-adapt=2 / b-pyramid / bframe-bias=0 / rc-lookahead=25 / lookahead-slices=4 / scenecut=40 / radl=0 / no-splice / no-intra-refresh / ctu=64 / min-cu-size=8 / no-rect / no-amp / max-tu-size=32 / tu-inter-depth=1 / tu-intra-depth=1 / limit-tu=0 / rdoq-level=0 / dynamic-rd=0.00 / no-ssim-rd / signhide / no-tskip / nr-intra=0 / nr-inter=0 / no-constrained-intra / strong-intra-smoothing / max-merge=2 / limit-refs=3 / no-limit-modes / me=1 / subme=2 / merange=57 / temporal-mvp / weightp / no-weightb / no-analyze-src-pics / deblock=0:0 / no-sao / no-sao-non-deblock / rd=3 / no-early-skip / rskip / no-fast-intra / no-tskip-fast / no-cu-lossless / no-b-intra / no-splitrd-skip / rdpenalty=0 / psy-rd=2.00 / psy-rdoq=0.00 / no-rd-refine / no-lossless / cbqpoffs=0 / crqpoffs=0 / rc=crf / crf=17.0 / qcomp=0.60 / qpstep=4 / stats-write=0 / stats-read=0 / vbv-maxrate=160000 / vbv-bufsize=160000 / vbv-init=0.9 / crf-max=0.0 / crf-min=0.0 / ipratio=1.40 / pbratio=1.30 / aq-mode=1 / aq-strength=1.00 / cutree / zone-count=0 / no-strict-cbr / qg-size=32 / no-rc-grain / qpmax=69 / qpmin=0 / no-const-vbv / sar=1 / overscan=0 / videoformat=5 / range=0 / colorprim=2 / transfer=2 / colormatrix=2 / chromaloc=0 / display-window=0 / max-cll=0,0 / min-luma=0 / max-luma=1023 / log2-max-poc-lsb=8 / vui-timing-info / vui-hrd-info / slices=1 / opt-qp-pps / opt-ref-list-length-pps / no-multi-pass-opt-rps / scenecut-bias=0.05 / no-opt-cu-delta-qp / no-aq-motion / no-hdr / no-hdr-opt / no-dhdr10-opt / no-idr-recovery-sei / analysis-reuse-level=5 / scale-factor=0 / refine-intra=0 / refine-inter=0 / refine-mv=0 / refine-ctu-distortion=0 / no-limit-sao / ctu-info=0 / no-lowpass-dct / refine-analysis-type=0 / copy-pic=1 / max-ausize-factor=1.0 / no-dynamic-refine / no-single-sei / no-hevc-aq / qp-adaptation-range=1.00
Default : Да
Forced : Нет

Аудио #1
Идентификатор : 2
Формат : DTS
Формат/Информация : Digital Theater Systems
Идентификатор кодека : A_DTS
Продолжительность : 2 ч. 10 м.
Вид битрейта : Постоянный
Битрейт : 1510 Кбит/сек
Каналы : 6 каналов
Расположение каналов : Front: L C R, Side: L R, LFE
Частота : 48,0 КГц
Частота кадров : 93,750 кадра/сек (512 SPF)
Битовая глубина : 24 бит
Метод сжатия : С потерями
Размер потока : 1,37 Гбайт (3%)
Заголовок : Лицензия
Язык : Russian
Default : Да
Forced : Да

Аудио #2
Идентификатор : 3
Формат : AC-3
Формат/Информация : Audio Coding 3
Идентификатор кодека : A_AC3
Продолжительность : 2 ч. 10 м.
Вид битрейта : Постоянный
Битрейт : 640 Кбит/сек
Каналы : 6 каналов
Расположение каналов : Front: L C R, Side: L R, LFE
Частота : 48,0 КГц
Частота кадров : 31,250 кадров/сек (1536 SPF)
Битовая глубина : 16 бит
Метод сжатия : С потерями
Размер потока : 595 Мбайт (1%)
Заголовок : Лицензия
Язык : Russian
ServiceKind/String : Complete Main
Default : Нет
Forced : Нет

Аудио #3
Идентификатор : 4
Формат : AC-3
Формат/Информация : Audio Coding 3
Идентификатор кодека : A_AC3
Продолжительность : 2 ч. 10 м.
Вид битрейта : Постоянный
Битрейт : 192 Кбит/сек
Каналы : 2 канала
Расположение каналов : Front: L R
Частота : 48,0 КГц
Частота кадров : 31,250 кадров/сек (1536 SPF)
Битовая глубина : 16 бит
Метод сжатия : С потерями
Размер потока : 179 Мбайт (0%)
Заголовок : HDRezka
Язык : Russian
ServiceKind/String : Complete Main
Default : Нет
Forced : Нет

Аудио #4
Идентификатор : 5
Формат : AC-3
Формат/Информация : Audio Coding 3
Идентификатор кодека : A_AC3
Продолжительность : 2 ч. 10 м.
Вид битрейта : Постоянный
Битрейт : 448 Кбит/сек
Каналы : 6 каналов
Расположение каналов : Front: L C R, Side: L R, LFE
Частота : 48,0 КГц
Частота кадров : 31,250 кадров/сек (1536 SPF)
Битовая глубина : 16 бит
Метод сжатия : С потерями
Размер потока : 417 Мбайт (1%)
Заголовок : Лицензия
Язык : Ukrainian
ServiceKind/String : Complete Main
Default : Нет
Forced : Нет

Аудио #5
Идентификатор : 6
Формат : TrueHD
Профиль формата : TrueHD+Atmos / TrueHD
Идентификатор кодека : A_TRUEHD
Продолжительность : 2 ч. 10 м.
Вид битрейта : Переменный
Битрейт : 3784 Кбит/сек
Максимальный битрейт : 7086 Кбит/сек
Каналы : Object Based / 8 каналов
Расположение каналов : Object Based / Front: L C R, Side: L R, Back: L R, LFE
Частота : / 48,0 КГц
Частота кадров : 1200,000 кадров/сек (40 SPF)
Метод сжатия : Без потерь
Задержка видео : 1 мс.
Размер потока : 3,44 Гбайт (8%)
Заголовок : English (Original)
Язык : English
Default : Нет
Forced : Нет

Аудио #6
Идентификатор : 7
Формат : AC-3
Формат/Информация : Audio Coding 3
Идентификатор кодека : A_AC3
Продолжительность : 2 ч. 10 м.
Вид битрейта : Постоянный
Битрейт : 448 Кбит/сек
Каналы : 6 каналов
Расположение каналов : Front: L C R, Side: L R, LFE
Частота : 48,0 КГц
Частота кадров : 31,250 кадров/сек (1536 SPF)
Битовая глубина : 16 бит
Метод сжатия : С потерями
Размер потока : 417 Мбайт (1%)
Заголовок : Original
Язык : English
ServiceKind/String : Complete Main
Default : Нет
Forced : Нет

Текст #1
Идентификатор : 8
Формат : UTF-8
Идентификатор кодека : S_TEXT/UTF8
Идентификатор кодека/Информация : UTF-8 Plain Text
Продолжительность : 1 ч. 11 м.
Битрейт : 2 бит/сек
ElementCount : 26
Размер потока : 1,40 Кбайт (0%)
Заголовок : Forced
Язык : Russian
Default : Да
Forced : Да

Текст #2
Идентификатор : 9
Формат : UTF-8
Идентификатор кодека : S_TEXT/UTF8
Идентификатор кодека/Информация : UTF-8 Plain Text
Продолжительность : 2 ч. 0 м.
Битрейт : 102 бит/сек
ElementCount : 1406
Размер потока : 90,4 Кбайт (0%)
Заголовок : Full
Язык : Russian
Default : Нет
Forced : Нет

Текст #3
Идентификатор : 10
Формат : UTF-8
Идентификатор кодека : S_TEXT/UTF8
Идентификатор кодека/Информация : UTF-8 Plain Text
Продолжительность : 2 ч. 9 м.
Битрейт : 69 бит/сек
ElementCount : 2389
Размер потока : 66,4 Кбайт (0%)
Заголовок : SDH
Язык : English
Default : Нет
Forced : Нет

Меню
00:00:00.000 : en:00:00:00.000
00:05:43.009 : en:00:05:43.009
00:11:50.043 : en:00:11:50.043
00:18:17.805 : en:00:18:17.805
00:23:46.675 : en:00:23:46.675
00:28:37.382 : en:00:28:37.382
00:34:38.785 : en:00:34:38.785
00:41:13.304 : en:00:41:13.304
00:46:44.593 : en:00:46:44.593
00:54:19.173 : en:00:54:19.173
01:02:42.342 : en:01:02:42.342
01:10:42.655 : en:01:10:42.655
01:16:16.155 : en:01:16:16.155
01:24:30.274 : en:01:24:30.274
01:30:37.724 : en:01:30:37.724
01:36:53.266 : en:01:36:53.266
01:44:56.081 : en:01:44:56.081
01:51:12.124 : en:01:51:12.124
01:54:38.872 : en:01:54:38.872
02:02:25.505 : en:02:02:25.505


Смотрeть онлайн Фильм Зеленая книга в хорошем HD 1080 качестве



Описание: 1960-е годы. После закрытия нью-йоркского ночного клуба на ремонт вышибала Тони по прозвищу Болтун ищет подработку на пару ... https://b.radikal.ru/b23/1903/95/2b3d45adbafc.png https://b.radikal.ru/b23/1903/95/2b3d45adbafc.png 2019-05-22 15:26 Cмотреть онлайн Зеленая книга true ru Скачать Зеленая книга через торрент, смотреть онлайн Зеленая книга https://b.radikal.ru/b23/1903/95/2b3d45adbafc.png Скачать торрент Зеленая книга , смотреть онлайн Зеленая книга , бесплатно в хорошем качестве Описание: 1960-е годы. После закрытия нью-йоркского ночного клуба на ремонт вышибала Тони по прозвищу Болтун ищет подработку на пару ... 10 10 2
Торрент: Зарегистрирован [2019-05-22 15:26] · скачан: 20 раз
Статус: √ проверено
Размер: 42.32 GB
Как cкачать? Как скачать Зеленая книга через торрент | UTorrent | Поделиться в телеграм

% Раздел Тема Автор DL S | L
Фильмы (HD 720p, 1080p) (48-60 fps) [ 4.45 GB ] Зелёная книга / Green Book | DUB | 1080p 10 bit 60 FPS ,DUB dd2d3 Скачать
3 | 0
Фильмы с авторской озвучкой [ 2.66 GB ] Зелёная книга / Green Book | AVO | BDRip-AVC killermax2013 Скачать
2 | 0
Фильмы (WEB-DL 720p, 1080p) [ 5.65 GB ] Зеленая книга / Green Book | iTunes | 720p bober100 Скачать
1 | 0
Фильмы с авторской озвучкой [ 2.01 GB ] Зелёная книга / Green Book | AVO | DLRip 1080p killermax2013 Скачать
1 | 0
Фильмы [HD 720p, 1080p] (Хороший звук DUB, MVO) [ 18.27 GB ] Зеленая книга / Green Book | Лицензия | 1080p bober100 Скачать
1 | 0
Ultra HD (UHD: 2K, 4K, 8K) [ 54.23 GB ] Зеленая книга / Green Book | Лицензия | 2160p sheker187 Скачать
1 | 0
Ultra HD (UHD: 2K, 4K, 8K) [ 63.36 GB ] Зеленая книга / Green Book | Лицензия | 2160p sheker187 Скачать
1 | 0

28-11-2019 20:33  


Отключить вcю реклaмy на сайте!

    Дорогой пользователь! Огромная просьба, поблагодарите релизера, оцените раздачу и оставьте свои комментарий, если Вы скачали Зеленая книга через торрент бесплатно!!
    Комментировать посты могут только пользователи прошедшие не сложную регистрацию
    Показать сообщения:    


    смотреть онлайн Зеленая книга
    Зеленая книга через торрент
    Скачать бесплатно Зеленая книга
    Зеленая книга скачать торрент
    Зеленая книга смотреть онлайн
    Cкачать фильм Зеленая книга бесплатно
    Зеленая книга скачать торрент в хорошем качестве
    Зеленая книга смотреть онлайн бесплатно в хорошем качестве
    Вы не можете начинать темы
    Вы не можете отвечать на сообщения
    Вы не можете редактировать свои сообщения
    Вы не можете удалять свои сообщения
    Вы не можете голосовать в опросах
    Вы не можете прикреплять файлы к сообщениям
    Вы можете скачивать файлы