Доктор Стрэндж

Лицензия

Добыча

Дубляж

Уэнсдэй

1 сезон

Тор

Дубляж

В эфире

Дубляж

Там, где раки поют

MVO

Властелин колец

1 сезон

Deluxe

pack

Рекомендуем

30

Пиратка

ВАЖНО

ВАЖНО

Ghostwire

Пиратка

jed

RePack

nioh2

RePack

RDR2

RePack

NEED FOR SPEED™ PAYBACK

RePack

скачать торрент

Кинопоиск HD

Острые козырьки 6 сезон

6 сезон

FAR CRY 6

RePack

скачать торрент

Лицензия

скачать торрент

MVO

1

1 сезон

скачать торрент

1 сезон

скачать торрент

Лицензия

  

Катастрофа роботов / Robot Holocaust (Тим Кинкейд) [1986 г., фантастика, ужасы, постапокалипсис, BDRip 1080p] DVO (НТВ+), AVO (В.Рутилов)

Катастрофа роботов через торрент piratbit.org

Размер: 6.12 GB | Добавлен: 3 года 6 мес. назад | Торрент скачан:52 раза
Смотреть онлайн | Скачать   

23-05-2019 20:01 Катастрофа роботов Скачать торрент  

Катастрофа роботов / Robot Holocaust
Год выпуска: 1986

Страна: Италия, США

Жанр: Фантастика, ужасы, постапокалипсис

Продолжительность: 01:19:28

Перевод: Профессиональный (двухголосый), авторский (одноголосый)

Субтитры: Английские

Режиссер: Тим Кинкейд

rating

В ролях: Норрис Калф, Надин Харт, Джоел фон Орнстайнер, Дженнифер Делора, Эндрю Ховарт, Анжелика Ягер, Рик Джианази, Джордж Грэй, Николас Рейнер

Описание: В ходе военного катаклизма взбунтовавшиеся роботы уничтожили цивилизацию планеты Нью-Терра, а остатки населения загнали глубоко под землю и сделали рабами таинственного Тёмного Правителя. Рабов распределили по фабрикам, где им предписывалось обеспечивать выработку энергии в обмен на воздух для дыхания. На одну из таких фабрик однажды и забрёл странник по имени Нео, которому суждено было организовать сопротивление и сбросить гнёт машин.
Качество: BDRip 1080p
Формат: MKV
Видео кодек: MPEG-4 AVC
Аудио кодек: AC3
Видео: MPEG-4 AVC, 10000 Кбит/с, 1920x1040
Аудио#1: Русский, AC3, 2 ch, 192 Кбит/с - DVO (НТВ+)
Аудио#2: Русский, AC3, 2 ch, 192 Кбит/с - AVO (В.Рутилов)
Аудио#3: Английский, AC3, 2 ch, 640 Кбит/сек
Видео
Идентификатор : 1
Формат : AVC
Формат/Информация : Advanced Video Codec
Профиль формата : High@L4.1
Настройки формата : CABAC / 4 Ref Frames
Параметр CABAC формата : Да
Параметр RefFrames формата : 4 кадра
Идентификатор кодека : V_MPEG4/ISO/AVC
Продолжительность : 1 ч. 19 м.
Битрейт : 10000 Кбит/сек
Ширина : 1920 пикселей
Высота : 1040 пикселей
Соотношение сторон : 1,85:1
Режим частоты кадров : Постоянный
Частота кадров : 23,976 кадра/сек
Цветовое пространство : YUV
Субдискретизация насыщенности : 4:2:0
Битовая глубина : 8 бит
Тип развёртки : Прогрессивная
Бит/(Пиксели*Кадры) : 0.209
Размер потока : 5,43 Гбайт (89%)
Заголовок : http://kosmoaelita.com/viewtopic.php?t=1988
Библиотека кодирования : x264 core 130 r2273 b3065e6
Настройки программы : cabac=1 / ref=4 / deblock=1:-1:-1 / analyse=0x3:0x131 / me=umh / subme=10 / psy=1 / psy_rd=0.99:0.14 / mixed_ref=1 / me_range=32 / chroma_me=1 / trellis=2 / 8x8dct=1 / cqm=0 / deadzone=21,11 / fast_pskip=1 / chroma_qp_offset=-3 / threads=6 / lookahead_threads=1 / sliced_threads=0 / nr=0 / decimate=1 / interlaced=0 / bluray_compat=0 / constrained_intra=0 / bframes=8 / b_pyramid=2 / b_adapt=2 / b_bias=0 / direct=3 / weightb=1 / open_gop=0 / weightp=2 / keyint=210 / keyint_min=21 / scenecut=40 / intra_refresh=0 / rc_lookahead=80 / rc=2pass / mbtree=1 / bitrate=10000 / ratetol=1.0 / qcomp=0.65 / qpmin=0 / qpmax=69 / qpstep=4 / cplxblur=20.0 / qblur=0.5 / ip_ratio=1.25 / aq=1:0.90
Default : Да
Forced : Нет
Цветовой диапазон : Limited
Основные цвета : BT.709
Характеристики трансфера : BT.709
Коэффициенты матрицы : BT.709

Аудио #1
Идентификатор : 2
Формат : AC-3
Формат/Информация : Audio Coding 3
Коммерческое название : Dolby Digital
Идентификатор кодека : A_AC3
Продолжительность : 1 ч. 19 м.
Вид битрейта : Постоянный
Битрейт : 192 Кбит/сек
Каналы : 2 канала
Channel layout : L R
Частота : 48,0 КГц
Частота кадров : 31,250 кадров/сек (1536 SPF)
Битовая глубина : 16 бит
Метод сжатия : С потерями
Размер потока : 109 Мбайт (2%)
Заголовок : Русский ПД (НТВ+)
Язык : Russian
ServiceKind/String : Complete Main
Default : Да
Forced : Нет

Аудио #2
Идентификатор : 3
Формат : AC-3
Формат/Информация : Audio Coding 3
Коммерческое название : Dolby Digital
Идентификатор кодека : A_AC3
Продолжительность : 1 ч. 19 м.
Вид битрейта : Постоянный
Битрейт : 192 Кбит/сек
Каналы : 2 канала
Channel layout : L R
Частота : 48,0 КГц
Частота кадров : 31,250 кадров/сек (1536 SPF)
Битовая глубина : 16 бит
Метод сжатия : С потерями
Размер потока : 109 Мбайт (2%)
Заголовок : Русский АО (В.Рутилов)
Язык : Russian
ServiceKind/String : Complete Main
Default : Нет
Forced : Нет

Аудио #3
Идентификатор : 4
Формат : AC-3
Формат/Информация : Audio Coding 3
Коммерческое название : Dolby Digital
Идентификатор кодека : A_AC3
Продолжительность : 1 ч. 19 м.
Вид битрейта : Постоянный
Битрейт : 640 Кбит/сек
Каналы : 2 канала
Channel layout : L R
Частота : 48,0 КГц
Частота кадров : 31,250 кадров/сек (1536 SPF)
Битовая глубина : 16 бит
Метод сжатия : С потерями
Размер потока : 364 Мбайт (6%)
Язык : English
ServiceKind/String : Complete Main
Default : Нет
Forced : Нет

Текст #1
Идентификатор : 5
Формат : PGS
Режим смешивания : zlib
Идентификатор кодека : S_HDMV/PGS
Идентификатор кодека/Информация : Picture based subtitle format used on BDs/HD-DVDs
Язык : English
Default : Да
Forced : Нет

Текст #2
Идентификатор : 6
Формат : UTF-8
Идентификатор кодека : S_TEXT/UTF8
Идентификатор кодека/Информация : UTF-8 Plain Text
Язык : English
Default : Нет
Forced : Нет

Меню
00:00:00.000 : en:00:00:00.000
00:06:26.094 : en:00:06:26.094
00:12:47.850 : en:00:12:47.850
00:17:33.636 : en:00:17:33.636
00:25:54.470 : en:00:25:54.470
00:34:20.892 : en:00:34:20.892
00:43:19.514 : en:00:43:19.514
00:51:33.799 : en:00:51:33.799
00:59:41.912 : en:00:59:41.912
01:07:26.876 : en:01:07:26.876
01:16:21.660 : en:01:16:21.660
01:19:27.721 : en:01:19:27.721

скриншот   скриншот   скриншот   скриншот   скриншот  




Скачать Катастрофа роботов через торрент https://pic1.kartinco.top/images/12/wfrrf.jpg Скачать, смотреть онлайн Катастрофа роботов бесплантно в хорошем качестве Описание: В ходе военного катаклизма взбунтовавшиеся роботы уничтожили цивилизацию планеты Нью-Терра, а остатки населения загнали глубоко ... 9.8 10 6
Торрент: Зарегистрирован [2019-05-23 20:01] · скачан: 52 раз
Статус: √ проверено
Размер: 6.12 GB
Как cкачать? Как скачать Катастрофа роботов через торрент | UTorrent

28-11-2019 20:33  


Отключить вcю реклaмy на сайте, в т.ч. и в плеере онлайн просмотра!

23-05-2019 20:07 Катастрофа роботов Скачать торрент  

Нео? Гнет Машин? Так вот какая она была — Первая Матрица!

Не, если серьезно, судя по сюжету и скринам - авторам надо было делать порнуху, а не художественный фильм)



23-05-2019 20:14 Катастрофа роботов Скачать торрент  

horton2011 писал(а):

Нео? Гнет Машин? Так вот какая она была — Первая Матрица!

Не, если серьезно, судя по сюжету и скринам - авторам надо было делать порнуху, а не художественный фильм)

приятного просмотра



24-05-2019 02:38 Катастрофа роботов Скачать торрент  

horton2011 писал(а):

Нео? Гнет Машин? Так вот какая она была — Первая Матрица!

Не, если серьезно, судя по сюжету и скринам - авторам надо было делать порнуху, а не художественный фильм)

Про год не забываем! Да и сегодня из 90% кинищ лучше бы порнуху сняли.



    Дорогой пользователь! Огромная просьба, поблагодарите релизера, оцените раздачу и оставьте свои комментарий, если Вы скачали Катастрофа роботов через торрент бесплатно!!
    Комментировать посты могут только пользователи прошедшие не сложную регистрацию
    Показать сообщения:    


    Катастрофа роботов через торрент
    Скачать бесплатно Катастрофа роботов
    Катастрофа роботов скачать торрент
    Катастрофа роботов смотреть онлайн
    Cкачать фильм Катастрофа роботов бесплатно
    Катастрофа роботов скачать торрент в хорошем качестве
    Катастрофа роботов смотреть онлайн бесплатно в хорошем качестве
    Вы не можете начинать темы
    Вы не можете отвечать на сообщения
    Вы не можете редактировать свои сообщения
    Вы не можете удалять свои сообщения
    Вы не можете голосовать в опросах
    Вы не можете прикреплять файлы к сообщениям
    Вы можете скачивать файлы
    Катастрофа роботов / Robot Holocaust [1986 г., фантастика, ужасы, постапокалипсис, BDRip 1080p] DVO , AVO смотреть онлайн, скачать торрент picoco.icu