Достать ножи: Стеклянная луковица

MVO

Добыча

Дубляж

Уэнсдэй

1 сезон

Тор

Дубляж

13 клиническая

1 сезон

Жестокая ночь

MVO

Одни из нас

1 сезон

Deluxe

pack

Рекомендуем

30

Пиратка

ВАЖНО

ВАЖНО

Ghostwire

Пиратка

jed

RePack

nioh2

RePack

RDR2

RePack

NEED FOR SPEED™ PAYBACK

RePack

скачать торрент

Кинопоиск HD

Острые козырьки 6 сезон

6 сезон

FAR CRY 6

RePack

скачать торрент

Лицензия

скачать торрент

MVO

1

1 сезон

скачать торрент

1 сезон

скачать торрент

Лицензия

  

Тень / Ying (Чжан Имоу) [2018, драма, боевик, UHD BDRip 2160p] Дубляж [iTunes] + MVO [HDRezka]

Тень через торрент piratbit.org

Размер: 16.09 GB | Добавлен: 3 года 8 мес. назад | Торрент скачан:132 раза
Смотреть онлайн | Скачать | Поддержите нас   

24-05-2019 11:23 Тень Скачать торрент  

Тень / Ying

Год выпуска: 2018
Страна: Китай, Гонконг
Жанр: драма, боевик
Продолжительность: 01:55:58
Перевод: Дублированный, Профессиональный многоголосый
Субтитры: Русские (full), английские (full)
Режиссер: Чжан Имоу
В ролях:

Ден Чао (Commander Zi Yu / Jing Zhou), Сунь Ли (Madam Xiao Ai, wife of Commander), Чжэн Кай (Pei Liang, the King of Pei), Ван Цяньюань (Captain Tian Zhan), Ван Цзинчунь (Minister Lu Yan), Ху Цзюнь (General Yang Cang), Гуань Сяотун (The Princess Qing Ping, King's sister), У Лэй (Yang Ping, general Yang's son), Фэн Бай
Описание:
Эпоха Троецарствия. Без ведома короля командующий Цзы Юй вызвал на дуэль генерала Яна, который захватил и удерживает город государства Пэй. Из-за своенравия командующий попадет в немилость правителя и лишается привилегий, но свою затею не оставляет. Только жена умирающего Юя знает, что вместо супруга уже целый год действует Тень, ещё с детства специально обученный двойник, а сам Юй сидит взаперти и строит коварные планы.
Рейтинг:

Качество: UHD BDRip 2160p
Формат: MKV
Видео: HEVC HDR, 13.9 Мбит/с, 3840x1604, 24 кадр/с, 10 бит
Аудио 1: AC3, 6 ch, 384 kbps - Русский (Дубляж, iTunes)
Аудио 2: AC3, 2 ch, 192 kbps - Русский (MVO, HDRezka)
Аудио 3: Atmos TrueHD, 8 ch, 4686 kbps - Китайский
Аудио 4: AC3, 6 ch, 640 kbps - Китайский
Навигация по главам: есть

Общее
Уникальный идентификатор : 234625165599611017014365184274493444957 (0xB08329C85C51CC3D85BB16CFF9D5935D)
Полное имя : D:\Мои раздачи\Передел\Shadow.2018.2160p.BDRip.x265.10bit.HDR.HEVC.Master5.mkv
Формат : Matroska
Версия формата : Version 4 / Version 2
Размер файла : 16,1 Гбайт
Продолжительность : 1 ч. 55 м.
Режим общего битрейта : Переменный
Общий поток : 19,9 Мбит/сек
Название фильма : Shadow.2018.2160p.BDRip.x265.10bit.HDR.HEVC.Master5
Дата кодирования : UTC 2019-05-24 08:39:45
Программа кодирования : mkvmerge v7.9.0 ('Birds') 64bit
Библиотека кодирования : libebml v1.3.1 + libmatroska v1.4.2
Обложка : Yes
Attachments : cover_land.jpg / small_cover.jpg / small_cover_land.jpg / cover.jpg / cover.jpg

Видео
Идентификатор : 1
Формат : HEVC
Формат/Информация : High Efficiency Video Coding
Коммерческое название : HDR10
Профиль формата : Main 10@L5.1@High
Идентификатор кодека : V_MPEGH/ISO/HEVC
Продолжительность : 1 ч. 55 м.
Битрейт : 13,9 Мбит/сек
Ширина : 3840 пикселей
Высота : 1604 пикселя
Соотношение сторон : 2,40:1
Режим частоты кадров : Постоянный
Частота кадров : 24,000 кадра/сек
Цветовое пространство : YUV
Субдискретизация насыщенности : 4:2:0 (Type 2)
Битовая глубина : 10 бит
Бит/(Пиксели*Кадры) : 0.094
Размер потока : 11,3 Гбайт (70%)
Заголовок : Shadow.2018.2160p.BDRip.x265.10bit.HDR.HEVC.Master5
Библиотека кодирования : x265 3.0_Au+10-74a8672ea4f7:[Windows][GCC 8.2.1][64 bit] 10bit
Настройки программы : cpuid=1111039 / frame-threads=16 / numa-pools=24,24,24,24 / wpp / no-pmode / no-pme / no-psnr / no-ssim / log-level=2 / input-csp=1 / input-res=3840x1604 / interlace=0 / total-frames=0 / level-idc=51 / high-tier=1 / uhd-bd=0 / ref=3 / no-allow-non-conformance / repeat-headers / annexb / aud / hrd / info / hash=0 / no-temporal-layers / no-open-gop / min-keyint=1 / keyint=24 / gop-lookahead=0 / bframes=4 / b-adapt=2 / b-pyramid / bframe-bias=0 / rc-lookahead=25 / lookahead-slices=4 / scenecut=40 / radl=0 / no-splice / no-intra-refresh / ctu=64 / min-cu-size=8 / no-rect / no-amp / max-tu-size=32 / tu-inter-depth=1 / tu-intra-depth=1 / limit-tu=0 / rdoq-level=0 / dynamic-rd=0.00 / no-ssim-rd / signhide / no-tskip / nr-intra=0 / nr-inter=0 / no-constrained-intra / strong-intra-smoothing / max-merge=2 / limit-refs=3 / no-limit-modes / me=1 / subme=2 / merange=57 / temporal-mvp / weightp / no-weightb / no-analyze-src-pics / deblock=0:0 / no-sao / no-sao-non-deblock / rd=3 / no-early-skip / rskip / no-fast-intra / no-tskip-fast / no-cu-lossless / no-b-intra / no-splitrd-skip / rdpenalty=0 / psy-rd=2.00 / psy-rdoq=0.00 / no-rd-refine / no-lossless / cbqpoffs=0 / crqpoffs=0 / rc=crf / crf=16.0 / qcomp=0.60 / qpstep=4 / stats-write=0 / stats-read=0 / vbv-maxrate=160000 / vbv-bufsize=160000 / vbv-init=0.9 / crf-max=0.0 / crf-min=0.0 / ipratio=1.40 / pbratio=1.30 / aq-mode=1 / aq-strength=1.00 / cutree / zone-count=0 / no-strict-cbr / qg-size=32 / no-rc-grain / qpmax=69 / qpmin=0 / no-const-vbv / sar=1 / overscan=0 / videoformat=5 / range=0 / colorprim=9 / transfer=16 / colormatrix=9 / chromaloc=1 / chromaloc-top=2 / chromaloc-bottom=2 / display-window=0 / master-display=G(8500,39850)B(6550,2300)R(35400,14600)WP(15635,16450)L(90000000,0) / max-cll=4570,607 / min-luma=0 / max-luma=1023 / log2-max-poc-lsb=8 / vui-timing-info / vui-hrd-info / slices=1 / opt-qp-pps / opt-ref-list-length-pps / no-multi-pass-opt-rps / scenecut-bias=0.05 / no-opt-cu-delta-qp / no-aq-motion / hdr / hdr-opt / no-dhdr10-opt / no-idr-recovery-sei / analysis-reuse-level=5 / scale-factor=0 / refine-intra=0 / refine-inter=0 / refine-mv=0 / refine-ctu-distortion=0 / no-limit-sao / ctu-info=0 / no-lowpass-dct / refine-analysis-type=0 / copy-pic=1 / max-ausize-factor=1.0 / no-dynamic-refine / no-single-sei / no-hevc-aq / no-svt / qp-adaptation-range=1.00
Default : Да
Forced : Нет
Цветовой диапазон : Limited
Основные цвета : BT.2020
Характеристики трансфера : PQ
Коэффициенты матрицы : BT.2020 non-constant
MasteringDisplay_ColorPrimaries : BT.2020
MasteringDisplay_Luminance : min: 0.0000 cd/m2, max: 9000 cd/m2
MaxCLL : 4570 cd/m2
MaxFALL : 607 cd/m2

Аудио #1
Идентификатор : 2
Формат : AC-3
Формат/Информация : Audio Coding 3
Идентификатор кодека : A_AC3
Продолжительность : 1 ч. 55 м.
Вид битрейта : Постоянный
Битрейт : 384 Кбит/сек
Каналы : 6 каналов
Расположение каналов : Front: L C R, Side: L R, LFE
Частота : 48,0 КГц
Частота кадров : 31,250 кадров/сек (1536 SPF)
Битовая глубина : 16 бит
Метод сжатия : С потерями
Размер потока : 318 Мбайт (2%)
Заголовок : Дублированный | iTunes |
Язык : Russian
ServiceKind/String : Complete Main
Default : Да
Forced : Нет

Аудио #2
Идентификатор : 3
Формат : AC-3
Формат/Информация : Audio Coding 3
Идентификатор кодека : A_AC3
Продолжительность : 1 ч. 55 м.
Вид битрейта : Постоянный
Битрейт : 192 Кбит/сек
Каналы : 2 канала
Расположение каналов : Front: L R
Частота : 48,0 КГц
Частота кадров : 31,250 кадров/сек (1536 SPF)
Битовая глубина : 16 бит
Метод сжатия : С потерями
Размер потока : 159 Мбайт (1%)
Заголовок : Профессиональный многоголосый, закадровый HDRezka
Язык : Russian
ServiceKind/String : Complete Main
Default : Нет
Forced : Нет

Аудио #3
Идентификатор : 4
Формат : TrueHD
Профиль формата : TrueHD+Atmos / TrueHD
Идентификатор кодека : A_TRUEHD
Продолжительность : 1 ч. 55 м.
Вид битрейта : Переменный
Битрейт : 4686 Кбит/сек
Максимальный битрейт : 7278 Кбит/сек
Каналы : Object Based / 8 каналов
Расположение каналов : Object Based / Front: L C R, Side: L R, Back: L R, LFE
Частота : / 48,0 КГц
Частота кадров : 1200,000 кадров/сек (40 SPF)
Метод сжатия : Без потерь
Размер потока : 3,80 Гбайт (24%)
Язык : Chinese
Default : Нет
Forced : Нет

Аудио #4
Идентификатор : 5
Формат : AC-3
Формат/Информация : Audio Coding 3
Идентификатор кодека : A_AC3
Продолжительность : 1 ч. 55 м.
Вид битрейта : Постоянный
Битрейт : 640 Кбит/сек
Каналы : 6 каналов
Расположение каналов : Front: L C R, Side: L R, LFE
Частота : 48,0 КГц
Частота кадров : 31,250 кадров/сек (1536 SPF)
Битовая глубина : 16 бит
Метод сжатия : С потерями
Размер потока : 531 Мбайт (3%)
Язык : Chinese
ServiceKind/String : Complete Main
Default : Нет
Forced : Нет

Текст #1
Идентификатор : 6
Формат : UTF-8
Идентификатор кодека : S_TEXT/UTF8
Идентификатор кодека/Информация : UTF-8 Plain Text
Продолжительность : 1 ч. 45 м.
Битрейт : 52 бит/сек
ElementCount : 1050
Размер потока : 40,3 Кбайт (0%)
Заголовок : Full
Язык : Russian
Default : Да
Forced : Нет

Текст #2
Идентификатор : 7
Формат : UTF-8
Идентификатор кодека : S_TEXT/UTF8
Идентификатор кодека/Информация : UTF-8 Plain Text
Продолжительность : 1 ч. 44 м.
Битрейт : 28 бит/сек
ElementCount : 1072
Размер потока : 21,7 Кбайт (0%)
Заголовок : Full
Язык : English
Default : Нет
Forced : Нет

Меню
00:00:00.000 : en:Глава 01
00:12:37.708 : en:Глава 02
00:24:52.208 : en:Глава 03
00:32:30.167 : en:Глава 04
00:41:19.667 : en:Глава 05
00:50:24.875 : en:Глава 06
01:05:11.958 : en:Глава 07
01:18:52.375 : en:Глава 08
01:23:47.125 : en:Глава 09
01:27:02.958 : en:Глава 10
01:33:11.375 : en:Глава 11
01:47:58.417 : en:Глава 12



Скачать Тень через торрент https://d.radikal.ru/d16/1905/d4/4e87885e3114.png Скачать, смотреть онлайн Тень бесплантно в хорошем качестве Описание: Эпоха Троецарствия. Без ведома короля командующий Цзы Юй вызвал на дуэль генерала Яна, который захватил и удерживает город ... 10 10 2
Info! Золотая раздача, скачанное не засчитывается.
Торрент: Зарегистрирован [2019-05-24 11:23] · скачан: 132 раз
Статус: √ проверено
Размер: 16.09 GB
Как cкачать? Как скачать Тень через торрент | UTorrent

% Раздел Тема Автор DL S | L
Азиатские фильмы [ 4.18 GB ] Тень / Ying | MVO | 1080p -Lexx- Скачать
1 | 0
Ultra HD (UHD: 2K, 4K, 8K) [ 50.41 GB ] Тень / Ying | iTunes | 2160p sheker187 Скачать
1 | 0
Азиатские фильмы [ 5.54 GB ] Тень / Ying / Shadow | iTunes | 720p bober100 Скачать
1 | 0
Азиатские фильмы [ 8.4 GB ] Тень / Ying / Shadow | iTunes | 1080p bober100 Скачать
1 | 0
Азиатские фильмы [ 1.41 GB ] Тень / Ying / Shadow | iTunes | BDRip bober100 Скачать
1 | 0
Фильмы (Blu-ray, BD-Remux, HDDVD) [ 17.12 GB ] Тень / Ying / Shadow | iTunes | BD Remux 1080p bober100 Скачать
1 | 0
# Фильмы (мультфильмы) cо спонсором показа (Новинки AVI/MKV) [ 10.57 GB ] Тень / Ying | DUB | 1080p bober100 Скачать
1 | 0

28-11-2019 20:33  


Отключить вcю реклaмy на сайте, в т.ч. и в плеере онлайн просмотра!

    Дорогой пользователь! Огромная просьба, поблагодарите релизера, оцените раздачу и оставьте свои комментарий, если Вы скачали Тень через торрент бесплатно!!
    Комментировать посты могут только пользователи прошедшие не сложную регистрацию
    Показать сообщения:    


    Тень через торрент
    Скачать бесплатно Тень
    Тень скачать торрент
    Тень смотреть онлайн
    Cкачать фильм Тень бесплатно
    Тень скачать торрент в хорошем качестве
    Тень смотреть онлайн бесплатно в хорошем качестве
    Вы не можете начинать темы
    Вы не можете отвечать на сообщения
    Вы не можете редактировать свои сообщения
    Вы не можете удалять свои сообщения
    Вы не можете голосовать в опросах
    Вы не можете прикреплять файлы к сообщениям
    Вы можете скачивать файлы
    Тень / Ying [2018, драма, боевик, UHD BDRip 2160p] Дубляж [iTunes] + MVO [HDRezka] смотреть онлайн, скачать торрент picoco.icu