1 сезон

3 сезон

iTunes

1

iTunes

DUB Netflix

iTunes

13

1 сезон

RePack

30

Deluxe

pack

Легкие деньги

ВАЖНО

ИГРА 18+

pack

RePack

MK11

RePack

jed

RePack

fifa19

RePack

RDR2

RePack

NEED FOR SPEED™ PAYBACK

4 сезон

9 сезон

Бесстыжие 9 сезон

Все сериалы

все сериалы на PB.wtf

RePack

FAR CRY 5

Anonymous, доброе утро, мы не успеваем до 1 числа собрать деньги на оплату серверов, помогите нам пожалуйста в это трудное время. В качестве благодарности мы отключим Вам всю рекламу на сайте (укажите свой ник в строку Ваше имя)!

×
  
Magnet ссылка

Фитнес / Королева фитнеса / Сезон: 2 / Серии: 1-20 из 20 (Антон Маслов) [2019, комедия, WEB-DLRip] piratbit.org

Фитнес через торрент piratbit.org

Размер: 6.84 GB | Добавлен: 1 год 8 мес. назад | Торрент скачан:111 раз
Скачать  

24-05-2019 19:20 Фитнес Скачать торрент  

Фитнес / Королева фитнеса Год выпуска: 2019
Страна: Россия
Жанр: комедия
Продолжительность: ~ 00:25:00 (Серия)
Субтитры: отсутствуют

Режиссер: Антон Маслов



В ролях: Софья Зайка, Михаил Трухин, Татьяна Храмова (II), Роман Курцын, Алексей Демидов, Борис Дергачев, Марианна Шульц, Ольга Баранова, Анна Лауренская, Татьяна Сомова, Мария Малиновская, Александр Семчев, Данила Якушев, Евгений Михеев, Дмитрий Чеботарёв, Елизавета Мартинес, Ирина Бякова, Андрей Пынзару

Описание: «Быстрее, выше, сильнее»… Перемены в фитнес-клубе SUPERFIT. Похудевшая на 20 килограмм Ася будет строить карьеру и личную жизнь. Теперь она решила делиться советами о том, как сбросить лишний вес, в своей группе «ВКонтакте». Блогерская деятельность постепенно начинает отнимать у нее все больше времени, что очень расстраивает Бориса. К дружной команде присоединится массажист Фил, а одного из сотрудников ждёт встреча с бывшей женой.

Качество: WEB-DLRip
Формат: AVI

Видео: 720x400 (1.80:1), 25 fps, XviD ~1800 kbps avg, 0.251 bit/pixel
Аудио: 48.0 kHz, AC3 Dolby Digital, 2/0 (L,R) ch, ~ 192 kbps
скриншот  скриншот  скриншот  скриншот  

General
Complete name : D:\Fitnes.S02.WEB-DLRip.25Kuzmich\Fitnes.s02.e01.WEB-DLRip.25Kuzmich.avi
Format : AVI
Format/Info : Audio Video Interleave
File size : 349 MiB
Duration : 24 min 18 s
Overall bit rate : 2 010 kb/s
Writing application : VirtualDubMod 1.5.10.3 | www.virtualdub-fr.org || (build 2550/release)
Writing library : VirtualDubMod build 2550/release

Video
ID : 0
Format : MPEG-4 Visual
Format profile : Advanced Simple@L5
Format settings : BVOP1
Format settings, BVOP : 1
Format settings, QPel : No
Format settings, GMC : No warppoints
Format settings, Matrix : Default (MPEG)
Codec ID : XVID
Codec ID/Hint : XviD
Duration : 24 min 18 s
Bit rate : 1 808 kb/s
Width : 720 pixels
Height : 400 pixels
Display aspect ratio : 16:9
Frame rate : 25.000 FPS
Color space : YUV
Chroma subsampling : 4:2:0
Bit depth : 8 bits
Scan type : Progressive
Compression mode : Lossy
Bits/(Pixel*Frame) : 0.251
Stream size : 314 MiB (90%)
Writing library : XviD 73

Audio
ID : 1
Format : AC-3
Format/Info : Audio Coding 3
Codec ID : 2000
Duration : 24 min 18 s
Bit rate mode : Constant
Bit rate : 192 kb/s
Channel(s) : 2 channels
Channel positions : Front: L R
Sampling rate : 48.0 kHz
Frame rate : 31.250 FPS (1536 SPF)
Bit depth : 16 bits
Compression mode : Lossy
Stream size : 33.4 MiB (10%)
Alignment : Split accross interleaves
Interleave, duration : 40 ms (1.00 video frame)
Interleave, preload duratio : 500 ms
Service kind : Complete Main

Внимание! Раздача ведётся путём добавления новых серий; при каждом добавлении создаётся новый торрент. Чтобы начать докачку новой серии, пользователям необходимо сделать следующее:
Остановить скачивание.
Удалить старый торрент у себя из клиента (старые серии удалять не надо).
Скачать новый торрент и запустить его у себя в клиенте вместо старого, при этом указать клиенту путь в старую папку куда и должно происходить скачивание новых серий.

Ваш клиент при этом должен произвести хеширование (проверку) старой папки (если не производит сам - помогите ему сделать это), и будет докачивать только те серии которых у вас ещё нет. Старые серии при этом не удаляются, а продолжают раздаваться!
Eсли вы уже удалили старые серии, то предотвратить повторную закачку старых серий можно, отжав галочку в соответсвующих местах при запуске нового торрента. По возможности, желательно не удалять старые серии как можно дольше чтобы релизёр не столько продолжал раздавать старые серии, а смог сконцентрироваться на новых.
piratbit.org



Скачать Фитнес через торрент https://i109.fastpic.ru/big/2019/0523/b0/20ddfc86e78dbd8f78b5a0fa9b8c40b0.jpg Скачать фильм Фитнес через торрент бесплантно в хорошем качестве Описание: «Быстрее, выше, сильнее»… Перемены в фитнес-клубе SUPERFIT. Похудевшая на 20 килограмм Ася будет строить карьеру и личную жизнь. ... 10 10 9
Торрент: Зарегистрирован [2019-10-17 01:37] · скачан: 111 раз
Статус: √ проверено
Размер: 6.84 GB
Как cкачать? Как скачать Фитнес через торрент | UTorrent

% Раздел Тема Автор DL S | L
TNT serials [ 9.08 GB ] Фитнес / Королева фитнеса/ Сезон: 2 / Серии: 1-20 из 20 [2019 WEB-DL 720p] bober100 Скачать
1 | 0
TNT serials [ 16.88 GB ] Фитнес / Королева фитнеса / Сезон: 2 / Серии: 1-20 из 20 [2019 WEB-DL 1080p] bober100 Скачать
1 | 0
TNT serials [ 5.85 GB ] Фитнес / Королева фитнеса / Сезон: 2 / Серии: 1-20 из 20 [2019 WEBRip-AVC] bober100 Скачать
2 | 0

28-11-2019 20:33  

Отключить всю рекламу на сайте

    Дорогой пользователь! Огромная просьба, поблагодарите релизера, оцените раздачу и оставьте свои комментарий, если Вы скачали Фитнес через торрент бесплатно! Внесите свою лепту в развитие PiratBit!
    Комментировать посты могут только пользователи прошедшие не сложную регистрацию
    Показать сообщения:    

    Фитнес через торрент
    Скачать бесплатно Фитнес
    Фитнес скачать торрент
    Фитнес смотреть онлайн
    Cкачать фильм Фитнес бесплатно
    Фитнес скачать торрент в хорошем качестве
    Фитнес смотреть онлайн бесплатно в хорошем качестве


    Вы не можете начинать темы
    Вы не можете отвечать на сообщения
    Вы не можете редактировать свои сообщения
    Вы не можете удалять свои сообщения
    Вы не можете голосовать в опросах
    Вы не можете прикреплять файлы к сообщениям
    Вы можете скачивать файлы