1 сезон

3 сезон

iTunes

1

iTunes

DUB Netflix

iTunes

13

1 сезон

RePack

30

Deluxe

pack

Легкие деньги

ВАЖНО

ИГРА 18+

pack

RePack

MK11

RePack

jed

RePack

fifa19

RePack

RDR2

RePack

NEED FOR SPEED™ PAYBACK

4 сезон

9 сезон

Бесстыжие 9 сезон

Все сериалы

все сериалы на PB.wtf

RePack

FAR CRY 5

Anonymous, доброй ночи, мы не успеваем до 1 числа собрать деньги на оплату серверов, помогите нам пожалуйста в это трудное время. В качестве благодарности мы отключим Вам всю рекламу на сайте (укажите свой ник в строку Ваше имя)!

×
  
Magnet ссылка

СашаТаня / Сезон: 8 / Серии: 1-16 из 16 (Михаил Старчак, Андрей Богатырёв, Александр Потапов) [2019, комедия, WEBRip-AVC] piratbit.org

СашаТаня через торрент piratbit.org

Размер: 4.56 GB | Добавлен: 2 года назад | Торрент скачан:65 раз
Скачать  

27-05-2019 07:06 СашаТаня Скачать торрент  

СашаТаня Год выпуска: 2019
Страна: Россия
Жанр: комедия
Продолжительность: ~ 00:25:00
Перевод: Не требуется
Субтитры: отсутствуют

Режиссер: Михаил Старчак, Андрей Богатырёв, Александр Потапов

rating


В ролях:

Андрей Гайдулян, Валентина Рубцова, Алексей Климушкин, Андрей Свиридов, Алексей Лемар, Лариса Баранова (II), Арарат Кещян, Павел Кассинский, Алина Ланина, Сергей Рудзевич, Татьяна Орлова, Олег Новиков (II), Андрей Лебедев, Ксения Хаирова, Виталий Гогунский, Сергей Мурзин, Михаил Полосухин, Веста Буркот, Александра Булычёва, Ёлка, Григорий Адаменко, Александр Корженков, Евгения Брагина, Александр Берлин (II), Олеся Галькевич, Михаил Солодовник, Ираида Краснопольская, Дмитрий Лямочкин, Марина Барсукова, Сергей Балашов (III), Николай Стародубцев, Владимир Витан, Виктория Герасимова, Яна Чигир, Владимир Епифанцев, Наталья Гудкова, Артём Грот, Дмитрий Гриневич, Александр Шам, Светлана Тимофеева-Летуновская, Вячеслав Морозов, Анастасия Уколова, Андрей Москвичёв, Игорь Кудряшов, Ирина Котельникова, Дмитрий Калистратов, Екатерина Казакова, Евгений Василенко, Олег Жуков, Евгения Ярушникова, Милена Нестерова, Андрей Пынзару, Максим Дромашко, Иван Руденко, Николай Лунин (II), Пётр Корнеев

Описание:

Сериал про молодую семью Сергеевых. После окончания института Саша и Таня вместе со своим маленьким сыном Алёшкой решили пожить самостоятельно и сняли квартиру в Южном Бутово. Райончик конечно не из лучших, но зато и цены на жилье тут доступные, ведь Саша не собирается пользоваться миллиардами своего папы. Но Сильвестр Андреевич не собирается так просто отставать от молодых и тем более от своего внука. Поэтому он поселился по соседству, только в просторной и роскошной квартире.

Качество: WEBRip-AVC
Формат: MKV

Видео: MPEG-4 AVC, ~ 1600 Кбит/с, 1024x576, 25 кадр/с
Аудио: AC3, 2 ch, 192 Кбит/с
скриншот  скриншот  скриншот  скриншот  

Общее
Уникальный идентификатор : 178910160019842751980274576150800458920 (0x8698D7EC9575BAC2B4521FEF907164A8)
Полное имя : D:\SashaTanya.S08.(2019).WEBRip.(AVC).Files-x\01.SashaTanya.s08.(2019).WEBRip.(AVC).by.Серый1779.Files-x.mkv
Формат : Matroska
Версия формата : Version 2
Размер файла : 281 Мбайт
Продолжительность : 21 м. 54 с.
Общий поток : 1793 Кбит/сек
Дата кодирования : UTC 2019-05-27 05:38:17
Программа кодирования : mkvmerge v7.8.0 ('River Man') 32bit built on Apr 3 2015 12:11:22
Библиотека кодирования : libebml v1.3.1 + libmatroska v1.4.2

Видео
Идентификатор : 1
Формат : AVC
Формат/Информация : Advanced Video Codec
Профиль формата : High@L4.1
Параметр CABAC формата : Да
Параметр RefFrames формата : 9 кадров
Идентификатор кодека : V_MPEG4/ISO/AVC
Продолжительность : 21 м. 54 с.
Битрейт : 1600 Кбит/сек
Ширина : 1024 пикселя
Высота : 576 пикселей
Соотношение сторон : 16:9
Режим частоты кадров : Постоянный
Частота кадров : 25,000 кадров/сек
Цветовое пространство : YUV
Субдискретизация насыщенности : 4:2:0
Битовая глубина : 8 бит
Тип развёртки : Прогрессивная
Бит/(Пиксели*Кадры) : 0.109
Размер потока : 245 Мбайт (87%)
Библиотека кодирования : x264 core 146 r2538 121396c
Настройки программы : cabac=1 / ref=9 / deblock=1:-2:-1 / analyse=0x3:0x133 / me=umh / subme=9 / psy=1 / psy_rd=1.00:0.15 / mixed_ref=1 / me_range=32 / chroma_me=1 / trellis=2 / 8x8dct=1 / cqm=0 / deadzone=21,11 / fast_pskip=0 / chroma_qp_offset=-3 / threads=18 / lookahead_threads=3 / sliced_threads=0 / nr=0 / decimate=1 / interlaced=0 / bluray_compat=0 / constrained_intra=0 / bframes=9 / b_pyramid=2 / b_adapt=2 / b_bias=0 / direct=1 / weightb=1 / open_gop=0 / weightp=2 / keyint=250 / keyint_min=25 / scenecut=40 / intra_refresh=0 / rc=2pass / mbtree=0 / bitrate=1600 / ratetol=1.0 / qcomp=0.60 / qpmin=0 / qpmax=69 / qpstep=4 / cplxblur=20.0 / qblur=0.5 / ip_ratio=1.40 / pb_ratio=1.30 / aq=2:1.00
Default : Да
Forced : Нет
Цветовой диапазон : Limited
Основные цвета : BT.709
Характеристики трансфера : BT.709
Коэффициенты матрицы : BT.709

Аудио
Идентификатор : 2
Формат : AC-3
Формат/Информация : Audio Coding 3
Расширение режима : CM (complete main)
Параметр Endianness формата : Big
Идентификатор кодека : A_AC3
Продолжительность : 21 м. 54 с.
Вид битрейта : Постоянный
Битрейт : 192 Кбит/сек
Каналы : 2 канала
Расположение каналов : Front: L R
Частота : 48,0 КГц
Частота кадров : 31,250 кадров/сек (1536 spf)
Метод сжатия : С потерями
Размер потока : 30,1 Мбайт (11%)
Default : Да
Forced : Нет

Когда раздача ведётся путём добавления новых серий, при каждом добавлении создётся новый торрент. Чтобы начать докачку новой серии, пользователям необходимо сделать следующее:
(1) остановить скачивание,
(2) удалить старый торрент у себя из клиента (старые серии удалять не надо),
(3) скачать новый торрент и запустить его у себя в клиенте вместо старого, при этом указать клиенту путь в старую папку, куда и должно происходить скачивание новых серий.
Ваш клиент при этом должен произвести хеширование (проверку) старой папки (если не производит сам - помогите ему сделать это), и будет докачивать только те серии, которых у вас ещё нет. Старые серии при этом не удаляются, а продолжают раздаваться!
Eсли вы уже удалили старые серии, то предотвратить повторную закачку старых серий можно, отжав галочку в соответсвующих местах при запуске нового торрента. По возможности, желательно не удалять старые серии как можно дольше, чтобы релизёр не столько продолжал раздавать старые серии, а смог сконцентрироваться на новых.
piratbit.org



Скачать СашаТаня через торрент http://img14.lostpic.net/2019/05/27/fd70f48bd67cb16949a25e2cb00833f1.jpg Скачать фильм СашаТаня через торрент бесплантно в хорошем качестве Описание: Сериал про молодую семью Сергеевых. После окончания института Саша и Таня вместе со своим маленьким сыном Алёшкой решили пожить ... 8.5 10 6
Торрент: Зарегистрирован [2019-06-19 01:38] · скачан: 65 раз
Статус: √ проверено
Размер: 4.56 GB
Как cкачать? Как скачать СашаТаня через торрент | UTorrent

% Раздел Тема Автор DL S | L
TNT serials [ 13.79 GB ] СашаТаня / Сезон: 8 / Серии: 1-16 из 16 [2019 HDTV 1080i] bober100 Скачать
1 | 0
TNT serials [ 7.08 GB ] СашаТаня / Сезон: 8 / Серии: 1-16 из 16 [2019 WEB-DL 720p] bober100 Скачать
1 | 0
TNT serials [ 13.2 GB ] СашаТаня / Сезон: 8 / Серии: 1-16 из 16 [2019 WEB-DL 1080p] bober100 Скачать
1 | 0

28-11-2019 20:33  

Отключить всю рекламу на сайте

    Дорогой пользователь! Огромная просьба, поблагодарите релизера, оцените раздачу и оставьте свои комментарий, если Вы скачали СашаТаня через торрент бесплатно! Внесите свою лепту в развитие PiratBit!
    Комментировать посты могут только пользователи прошедшие не сложную регистрацию
    Показать сообщения:    

    СашаТаня через торрент
    Скачать бесплатно СашаТаня
    СашаТаня скачать торрент
    СашаТаня смотреть онлайн
    Cкачать фильм СашаТаня бесплатно
    СашаТаня скачать торрент в хорошем качестве
    СашаТаня смотреть онлайн бесплатно в хорошем качестве


    Вы не можете начинать темы
    Вы не можете отвечать на сообщения
    Вы не можете редактировать свои сообщения
    Вы не можете удалять свои сообщения
    Вы не можете голосовать в опросах
    Вы не можете прикреплять файлы к сообщениям
    Вы можете скачивать файлы