Доктор Стрэндж

Лицензия

Добыча

MVO

Дом дракона

1 сезон

Тор

Лицензия

Мэверик

Лицензия

Там, где раки поют

MVO

Властелин колец

1 сезон

Ultimate

pack

Рекомендуем

30

Repack

ВАЖНО

ВАЖНО

Ghostwire

RePack

jed

RePack

nioh2

RePack

RDR2

RePack

NEED FOR SPEED™ PAYBACK

RePack

скачать торрент

Кинопоиск HD

Острые козырьки 6 сезон

6 сезон

FAR CRY 6

RePack

скачать торрент

Лицензия

скачать торрент

MVO

1

1 сезон

скачать торрент

1 сезон

скачать торрент

Лицензия

  

Молодожен (Валерий Исаков) [1963, СССР, короткометражка, семейный, SATRip от AVP Studio]

Молодожен через торрент piratbit.org

Размер: 240 MB | Добавлен: 3 года 4 мес. назад | Торрент скачан:16 раз
Смотреть онлайн Молодожен | Скачать   

27-05-2019 08:44 Молодожен Скачать торрент  

Молодожен
Страна: СССР
Производство: Одесская киностудия

Жанр: короткометражка, семейный
Год выпуска: 1963
Продолжительность: 00:27:22

Перевод: Не требуется
Cубтитры: нет
Оригинальная аудиодорожка: русский

Режиссер: Валерий Исаков

В ролях:
Василий Векшин, Семён Соколовский, Инна Макарова, Антонина Павлычева...
Об актёрах подробней

Описание:
По одноименному рассказу Юрия Нагибина.
В плавни Днестра приезжает на охоту Сергей Воронов. Он здесь впервые, и ему рекомендуют егеря Василия по прозвищу «Молодожён». Вечером у костра мужчины заговорили о женах. Циничные взгляды Воронова вызывают у Василия протест. Ему хочется домой. С иронией Воронов соглашается отпустить «Молодожёна» до утра. Когда Василий возвращается, Воронов с удивлением узнает, что егерь женат более десяти лет. Не растерял с годами Василий юношеского задора, влюблённости в свою жену. Поэтому и прозвали его односельчане "Молодожёном".

Исходник: DVB
Качество видео: SATRip
Формат видео: AVI

Видео: 704x496 (1,419:1), 25,000 кадров/сек, XviD ~ 1021 kbps avg, 0.117 bit/pixel
Аудио: 48 kHz, Dolby Digital AC3 2.0, 192 kbps

Раздача от:
Общее
Полное имя : Molodozhen.1963.SATRip_[New-team]_by_AVP_Studio.avi
Формат : AVI
Формат/Информация : Audio Video Interleave
Размер файла : 241 Мбайт
Продолжительность : 27 м. 35 с.
Общий поток : 1223 Кбит/сек
Программа кодирования : VirtualDubMod 1.5.10.3 | www.virtualdub-fr.org || (build 2550/release)
Библиотека кодирования : VirtualDubMod build 2550/release

Видео
Идентификатор : 0
Формат : MPEG-4 Visual
Профиль формата : Advanced Simple@L5
Настройки формата : BVOP1 / Custom Matrix
Параметр BVOP формата : 1
Параметр QPel формата : Нет
Параметр GMC формата : Без точки перехода
Параметр матрицы формата : Выборочная
Идентификатор кодека : XVID
Идентификатор кодека/Подсказка : XviD
Продолжительность : 27 м. 35 с.
Битрейт : 1021 Кбит/сек
Ширина : 704 пикселя
Высота : 496 пикселей
Соотношение сторон : 1,419
Частота кадров : 25,000 кадров/сек
Цветовое пространство : YUV
Субдискретизация насыщенности : 4:2:0
Битовая глубина : 8 бит
Тип развёртки : Прогрессивная
Метод сжатия : С потерями
Бит/(Пиксели*Кадры) : 0.117
Размер потока : 202 Мбайт (84%)
Библиотека кодирования : XviD 73

Аудио
Идентификатор : 1
Формат : AC-3
Формат/Информация : Audio Coding 3
Коммерческое название : Dolby Digital
Идентификатор кодека : 2000
Продолжительность : 27 м. 35 с.
Вид битрейта : Постоянный
Битрейт : 192 Кбит/сек
Каналы : 2 канала
ChannelLayout : L R
Частота : 48,0 КГц
Частота кадров : 31,250 кадров/сек (1536 SPF)
Битовая глубина : 16 бит
Метод сжатия : С потерями
Размер потока : 37,9 Мбайт (16%)
Выравнивание : Разделение по промежуткам
Продолжительность промежутка : 40 мс. (1,00 видеокадр)
Время предзагрузки промежутка : 500 мс.



Скачать Молодожен через торрент http://picplus.ru/img/1905/27/e8d0f76b.png Скачать, смотреть онлайн Молодожен бесплантно в хорошем качестве Описание:По одноименному рассказу Юрия Нагибина.В плавни Днестра приезжает на охоту Сергей Воронов. Он здесь впервые, и ему рекомендуют ... 10 10 1
Торрент: Зарегистрирован [2019-05-27 08:44] · скачан: 16 раз
Статус: √ проверено
Размер: 240 MB
Как cкачать? Как скачать Молодожен через торрент | UTorrent

% Раздел Тема Автор DL S | L
Кино СССР [ 369 MB ] Молодожен | | SATRip-AVC от AVP Studio AVP Studio Скачать
3 | 0

28-11-2019 20:33  

Отключить вcю реклaмy на сайте

    Дорогой пользователь! Огромная просьба, поблагодарите релизера, оцените раздачу и оставьте свои комментарий, если Вы скачали Молодожен через торрент бесплатно!!
    Комментировать посты могут только пользователи прошедшие не сложную регистрацию
    Показать сообщения:    


    Молодожен через торрент
    Скачать бесплатно Молодожен
    Молодожен скачать торрент
    Молодожен смотреть онлайн
    Cкачать фильм Молодожен бесплатно
    Молодожен скачать торрент в хорошем качестве
    Молодожен смотреть онлайн бесплатно в хорошем качестве
    Вы не можете начинать темы
    Вы не можете отвечать на сообщения
    Вы не можете редактировать свои сообщения
    Вы не можете удалять свои сообщения
    Вы не можете голосовать в опросах
    Вы не можете прикреплять файлы к сообщениям
    Вы можете скачивать файлы