MEGA SALE -50% FORZA HORIZON 4 ULTIMATE+ВСЕ DLC+ОНЛАЙН всего за 599р. 299 руб. (супер цена). Внимание количество ограничено!!!

iTunes

1+1

iTunes

мы

iTunes

1

iTunes

Чернобыль

iTunes

Ральф против интернета

Лицензия

ПШазам

Лицензия

Игра престолов

Лицензия

30
pack

ВАЖНО

!!Акция!!

Alien_RageХит недели

RePack

Resident Evil 21

ИГРА 18+

pack

RePack

Metro:Exodus

!!Акция!!

Alien_Rage

RePack

fifa19

RePack

Assassins Creed: Odyssey

RePack

NEED FOR SPEED™ PAYBACK

3 сезон

9 сезон

Бесстыжие 9 сезон

Все сериалы

все сериалы на PB.wtf

RePack

FAR CRY 5
Ребята, катастрофически не хватает 7730р. для оплаты серверов за АВГУСТ (всвязи с блокировками трафик упал в 3 раза), 1-2р., выручайте.
  

Кровь и сокровища / Blood & Treasure / Сезон: 1 / Серии: 1-13 из 13 (Гай Норман Би, Стив Бойум, Холли Дэйл) [2019, боевик, приключения, WEB-DLRip] [MVO] (TVShows) piratbit.org

Кровь и сокровища через торрент piratbit.org

Раздают: 1 [ 393 KB/s ]
Размер: 8.96 GB | Добавлен: 1 мес. 6 д. назад | Торрент скачан:12 раз
Скачать  

28-05-2019 06:11 Кровь и сокровища Скачать торрент  

Кровь и сокровища | Blood & Treasure
Год выпуска: 2019
Страна: США
Жанр: боевик, приключения
Продолжительность: ~ 00:44:00

Перевод: Профессиональный (многоголосый закадровый) TVShows

Режиссёр: Гай Норман Би, Стив Бойум, Холли Дэйл

В ролях: Мэтт Барр, София Пернас, Катя Винтер, Антонио Цупо, Майкл Джеймс Шоу, Джеймс Кэллис, Алисия Коппола, Карл Грабошас, Марк Джальярди и др.
Описание: Дэнни Макнамара - бывший агент ФБР, специализирующийся на розыске древних предметов искусства. Лекси Вазири - талантливый вор мира искусства, страдающая от трагической потери отца, в которой она обвиняет Дэнни. Агент нанимает ее, чтобы поймать загадочного террориста Фарука, финансирующего свои операции на деньги от краденных драгоценностей. Дэнни и Лекси помогает отец Чак, друг детства Дэнни, который работает в министерстве иностранных дел Ватикана в Риме. Во время охоты за своей целью, напарники неожиданно оказываются в центре 2000-летней битвы за колыбель цивилизации.
ratingскриншот  


Качество: WEB-DLRip
Формат: AVI
Видео: XVID, 720x400, 23.976 fps, ~2000 kbps avg, 0.29 bit/pixel
Аудио Rus: AC3, 48.0 KHz, 6 channels, 384 kbps
Субтитры: нет
General
Complete name : G:\Кровь и сокровища (Сезон 1) TVShows\Blood.And.Treasure.S01E01E02.WEB-DLRip.RGzsRutracker.Celta88.avi
Format : AVI
Format/Info : Audio Video Interleave
File size : 1.40 GiB
Duration : 1 h 23 min
Overall bit rate : 2 393 kb/s
Writing application : VirtualDubMod 1.5.10.3 | www.virtualdub-fr.org || (build 2550/release)
Writing library : VirtualDubMod build 2550/release

Video
ID : 0
Format : MPEG-4 Visual
Format profile : Advanced Simple@L5
Format settings, BVOP : 1
Format settings, QPel : No
Format settings, GMC : No warppoints
Format settings, Matrix : Custom
Codec ID : XVID
Codec ID/Hint : XviD
Duration : 1 h 23 min
Bit rate : 1 999 kb/s
Width : 720 pixels
Height : 400 pixels
Display aspect ratio : 16:9
Frame rate : 23.976 (24000/1001) FPS
Color space : YUV
Chroma subsampling : 4:2:0
Bit depth : 8 bits
Scan type : Progressive
Compression mode : Lossy
Bits/(Pixel*Frame) : 0.290
Stream size : 1.17 GiB (84%)
Writing library : XviD 73

Audio
ID : 1
Format : AC-3
Format/Info : Audio Coding 3
Mode extension : CM (complete main)
Format settings, Endianness : Big
Codec ID : 2000
Duration : 1 h 23 min
Bit rate mode : Constant
Bit rate : 384 kb/s
Channel(s) : 6 channels
Channel positions : Front: L C R, Side: L R, LFE
Sampling rate : 48.0 kHz
Frame rate : 31.250 FPS (1536 spf)
Bit depth : 16 bits
Compression mode : Lossy
Stream size : 231 MiB (16%)
Alignment : Split accross interleaves
Interleave, duration : 42 ms (1.00 video frame)
Interleave, preload duratio : 500 ms
скриншот  скриншот  скриншот  скриншот  скриншот  
Внимание! Раздача ведётся путём добавления новых серий; при каждом добавлении создаётся новый торрент.
Чтобы начать докачку новой серии, пользователям необходимо сделать следующее:

1. Остановить скачивание.
2. Удалить старый торрент у себя из клиента (старые серии удалять не надо).
3. Скачать новый торрент и запустить его у себя в клиенте вместо старого, при этом указать клиенту путь в старую папку куда и должно происходить скачивание новых серий.

Ваш клиент при этом должен произвести хеширование (проверку) старой папки (если не производит сам - помогите ему сделать это), и будет докачивать только те серии которых у вас ещё нет. Старые серии при этом не удаляются, а продолжают раздаваться!
Eсли вы уже удалили старые серии, то предотвратить повторную закачку старых серий можно, отжав галочку в соответсвующих местах при запуске нового торрента.
piratbit.org



Скачать Кровь и сокровища через торрент https://i109.fastpic.ru/big/2019/0525/eb/148c936dc74c4f37efbd0cf722f37ceb.jpg Скачать фильм Кровь и сокровища через торрент бесплантно в хорошем качестве Описание: Дэнни Макнамара - бывший агент ФБР, специализирующийся на розыске древних предметов искусства. Лекси Вазири - талантливый вор ... 8.3 10 3
Торрент: Зарегистрирован [2019-08-11 12:02] · скачан: 12 раз
Статус: √ проверено
Размер: 8.96 GB
Как cкачать? Как скачать Кровь и сокровища через торрент | qTorrent


>> Регистрируемся здесь <<






Отзывы и комментарии о схеме читаем и пишем здесь: ---> Отзывы и комментарии о схеме

Новые благодарочки в телеграм довольных пользователей:
скриншот   скриншот   скриншот   скриншот   скриншот
    Дорогой пользователь! Огромная просьба, поблагодарите релизера, оцените раздачу и оставьте свои комментарий, если Вы скачали Кровь и сокровища через торрент бесплатно! Внесите свою лепту в развитие PiratBit!
    Комментировать посты могут только пользователи прошедшие не сложную регистрацию
    Показать сообщения:    

    Кровь и сокровища через торрент
    Скачать бесплатно Кровь и сокровища
    Кровь и сокровища скачать торрент
    Кровь и сокровища смотреть онлайн
    Cкачать фильм Кровь и сокровища бесплатно
    Кровь и сокровища скачать торрент в хорошем качестве
    Кровь и сокровища смотреть онлайн бесплатно в хорошем качестве


    Вы не можете начинать темы
    Вы не можете отвечать на сообщения
    Вы не можете редактировать свои сообщения
    Вы не можете удалять свои сообщения
    Вы не можете голосовать в опросах
    Вы не можете прикреплять файлы к сообщениям
    Вы можете скачивать файлы