1 сезон

3 сезон

iTunes

1

iTunes

DUB Netflix

iTunes

13

1 сезон

RePack

30

Deluxe

pack

Легкие деньги

ВАЖНО

ИГРА 18+

pack

RePack

MK11

RePack

jed

RePack

fifa19

RePack

RDR2

RePack

NEED FOR SPEED™ PAYBACK

4 сезон

9 сезон

Бесстыжие 9 сезон

Все сериалы

все сериалы на PB.wtf

RePack

FAR CRY 5

Anonymous, доброй ночи, мы не успеваем до 1 числа собрать деньги на оплату серверов, помогите нам пожалуйста в это трудное время. В качестве благодарности мы отключим Вам всю рекламу на сайте (укажите свой ник в строку Ваше имя)!

×
  
Magnet ссылка

Толя-робот / Сезон: 1 / Серии: 1-8 из 8 (Алексей Нужный) [2019, комедия, WEB-DLRip] piratbit.org

Толя-робот через торрент piratbit.org

Раздают: 1 [ 0 KB/s ]
Размер: 4.69 GB | Добавлен: 1 год назад | Торрент скачан:51 раз
Скачать  

28-05-2019 06:29 Толя-робот Скачать торрент  

Толя-робот Год выпуска: 2019
Страна: Россия
Жанр: комедия
Продолжительность: ~ 00:48:00 серия
Перевод: Не требуется
Субтитры: отсутствуют

Режиссер: Алексей Нужный



В ролях:

Александр Паль, Евгений Кулик (II), Маргарита Аброськина, Валентина Мазунина, Азамат Мусагалиев, Александр Никольский, Фёдор Инсаров, Михаил Орлов (III), Евгений Коряковский, Екатерина Директоренко, Елена Валюшкина, Сергей Стёпин, Юлия Гришаева, Максим Костромыкин, Максим Фадеев, Ольга Серябкина

Описание:

Толя — молодой провинциальный парень без рук и ног, который оказывается более сильным, жизнелюбивым и оптимистичным, чем окружающие его люди с руками и ногами. Обретя бионические протезы, он начинает жить на полную катушку: борется за лучшую девушку в своём городе, организует ТСЖ и отстаивает свой дом, включается в жизнь своих близких и увлекает их за собой — к свету и мечте.

Качество: WEB-DLRip
Формат: AVI

Видео: 720x304 (2.37:1), 25 fps, XviD build 73 ~1550 kbps avg, 0.28 bit/pixel
Аудио: AC3 Dolby Digital, 48.0 kHz, 2/0 (L,R) ch, 192 kbps
скриншот  скриншот  скриншот  скриншот  

General
Complete name : D:\Tolya.Robot.2019.WEB-DLRip.25Kuzmich\Tolya.Robot.S01E01.WEB-DLRip.25Kuzmich.avi
Format : AVI
Format/Info : Audio Video Interleave
File size : 601 MiB
Duration : 47 min 54 s
Overall bit rate : 1 754 kb/s
Writing application : VirtualDubMod 1.5.10.3 | www.virtualdub-fr.org || (build 2550/release)
Writing library : VirtualDubMod build 2550/release

Video
ID : 0
Format : MPEG-4 Visual
Format profile : Advanced Simple@L5
Format settings : BVOP1
Format settings, BVOP : 1
Format settings, QPel : No
Format settings, GMC : No warppoints
Format settings, Matrix : Default (MPEG)
Codec ID : XVID
Codec ID/Hint : XviD
Duration : 47 min 54 s
Bit rate : 1 552 kb/s
Width : 720 pixels
Height : 304 pixels
Display aspect ratio : 2.35:1
Frame rate : 25.000 FPS
Color space : YUV
Chroma subsampling : 4:2:0
Bit depth : 8 bits
Scan type : Progressive
Compression mode : Lossy
Bits/(Pixel*Frame) : 0.284
Stream size : 532 MiB (88%)
Writing library : XviD 73

Audio
ID : 1
Format : AC-3
Format/Info : Audio Coding 3
Codec ID : 2000
Duration : 47 min 54 s
Bit rate mode : Constant
Bit rate : 192 kb/s
Channel(s) : 2 channels
Channel positions : Front: L R
Sampling rate : 48.0 kHz
Frame rate : 31.250 FPS (1536 SPF)
Bit depth : 16 bits
Compression mode : Lossy
Stream size : 65.8 MiB (11%)
Alignment : Split accross interleaves
Interleave, duration : 40 ms (1.00 video frame)
Interleave, preload duratio : 500 ms
Service kind : Complete Main

Когда раздача ведётся путём добавления новых серий, при каждом добавлении создётся новый торрент. Чтобы начать докачку новой серии, пользователям необходимо сделать следующее:
(1) остановить скачивание,
(2) удалить старый торрент у себя из клиента (старые серии удалять не надо),
(3) скачать новый торрент и запустить его у себя в клиенте вместо старого, при этом указать клиенту путь в старую папку, куда и должно происходить скачивание новых серий.
Ваш клиент при этом должен произвести хеширование (проверку) старой папки (если не производит сам - помогите ему сделать это), и будет докачивать только те серии, которых у вас ещё нет. Старые серии при этом не удаляются, а продолжают раздаваться!
Eсли вы уже удалили старые серии, то предотвратить повторную закачку старых серий можно, отжав галочку в соответсвующих местах при запуске нового торрента. По возможности, желательно не удалять старые серии как можно дольше, чтобы релизёр не столько продолжал раздавать старые серии, а смог сконцентрироваться на новых.
piratbit.org



Скачать Толя-робот через торрент https://i109.fastpic.ru/big/2019/0520/8a/0a617ac5d8091df372966b118290738a.jpg Скачать фильм Толя-робот через торрент бесплантно в хорошем качестве Описание: Толя — молодой провинциальный парень без рук и ног, который оказывается более сильным, жизнелюбивым и оптимистичным, чем ... 9.5 10 18
Торрент: Зарегистрирован [2020-05-26 07:00] · скачан: 51 раз
Статус: √ проверено
Размер: 4.69 GB
Как cкачать? Как скачать Толя-робот через торрент | UTorrent

% Раздел Тема Автор DL S | L
TNT serials [ 13.18 GB ] Толя-робот / Сезон: 1 / Серии: 1-8 из 8 [2019 WEB-DL 1080p] bober100 Скачать
1 | 0
TNT serials [ 17.11 GB ] Толя-робот / Сезон: 1 / Серии: 1-8 из 8 [2019 HDTV 1080i] bober100 Скачать
1 | 0
TNT serials [ 4.72 GB ] Толя-робот / Сезон: 1 / Серии: 1-8 из 8 [2019 SATRip] bober100 Скачать
1 | 0
TNT serials [ 4.56 GB ] Толя-робот/ Сезон : 1 / Серии: 1-8 из 8 [2019 WEBRip-AVC] Sanekzade1989 Скачать
1 | 0


Последний раз редактировалось: bober100 (2020-05-26 07:00), всего редактировалось 1 раз

28-11-2019 20:33  

Отключить всю рекламу на сайте

08-06-2019 11:04 Толя-робот Скачать торрент  

Чернобыль? Чарли Чаплин, нет, конечно Толя-робот. Лучшее кино своего времени!piratbit.org



    Дорогой пользователь! Огромная просьба, поблагодарите релизера, оцените раздачу и оставьте свои комментарий, если Вы скачали Толя-робот через торрент бесплатно! Внесите свою лепту в развитие PiratBit!
    Комментировать посты могут только пользователи прошедшие не сложную регистрацию
    Показать сообщения:    

    Толя-робот через торрент
    Скачать бесплатно Толя-робот
    Толя-робот скачать торрент
    Толя-робот смотреть онлайн
    Cкачать фильм Толя-робот бесплатно
    Толя-робот скачать торрент в хорошем качестве
    Толя-робот смотреть онлайн бесплатно в хорошем качестве


    Вы не можете начинать темы
    Вы не можете отвечать на сообщения
    Вы не можете редактировать свои сообщения
    Вы не можете удалять свои сообщения
    Вы не можете голосовать в опросах
    Вы не можете прикреплять файлы к сообщениям
    Вы можете скачивать файлы