Доктор Стрэндж

Лицензия

Добыча

Дубляж

Дом дракона

1 сезон

Тор

Дубляж

В эфире

Дубляж

Там, где раки поют

MVO

Властелин колец

1 сезон

Ultimate

pack

Рекомендуем

30

Пиратка

ВАЖНО

ВАЖНО

Ghostwire

Пиратка

jed

RePack

nioh2

RePack

RDR2

RePack

NEED FOR SPEED™ PAYBACK

RePack

скачать торрент

Кинопоиск HD

Острые козырьки 6 сезон

6 сезон

FAR CRY 6

RePack

скачать торрент

Лицензия

скачать торрент

MVO

1

1 сезон

скачать торрент

1 сезон

скачать торрент

Лицензия

  

Свободные / Footloose (Херберт Росс) [1984, драма, мелодрама, музыка, BDRip 1080p ] DVO

Свободные через торрент piratbit.org

Размер: 14.52 GB | Добавлен: 3 года 5 мес. назад | Торрент скачан:2 раза
Смотреть онлайн | Скачать   

29-05-2019 05:53 Свободные Скачать торрент  

Название: Свободные
Оригинальное название: Footloose
Год выпуска: 1984
Страна: США
Жанр: драма, мелодрама, музыка
Продолжительность: 01:47:12
Перевод: закадровый двухголосый

Режиссер: Херберт Росс
В ролях: Кевин Бэйкон, Лори Сингер, Джон Литгоу, Дайэнн Уист, Крис Пенн, Сара Джессика Паркер, Джон Лофлин, Элизабет Горси, Фрэнсис Ли МакКейн, Джим Янгс, Дуглас Дирксон, Линн Марта, Артур Розенберг, Тимоти Скотт, Алан Хофрект, Линда МакЭвен, Ким Дженсен, Лео Гетер, Кен Кемп, Русс МакДжинн, Сэм Далтон, Х.Е.Д. Редфорд, Джей Бернард, Дэвид Валенза, Меган Бродхэд, Мими Бродхэд, Джин Пэк, Марсия Рейдер, Джон Перримен, Мэри Этель Грегори, Оскар Роулэнд, Дж. Пол Бродхэд, Джон Бишоп

Описание: Музыкальная мелодрама «Свободные» – рассказ о Рене МакКормике, молодом человеке, который вместе с родителями переезжает из Чикаго в небольшой провинциальный городок. Местечко это оказывается крайне консервативным и патриархальным; порядки, которые проповедует здесь преподобный отец Мур, даже не предполагают играть рок-музыку и танцевать. Рен поначалу безуспешно пытается вписаться в местное общество, а потом решает бросить ему вызов...



Качество: BDRip 1080p
Формат: MKV
Видео: MPEG-4 AVC, 17.6 Mбит/с, 1920x1080
Аудио 1: русский, AC3, 256 kbps, 2 ch, 48 kHz [закадровый двухголосый]
Аудио 2: английский, DTS, 1509 kbps, 6 ch, 48 kHz [оригинал]
Субтитры: английские
Главы/чаптеры
Общее
Уникальный идентификатор : 208507218286505396848032265546069506045 (0x9CDD078F66D7633BA69D4A9CFFB4F7FD)
Полное имя : D:\Video\Свободные.1984.BDRip 1080p by msltel.mkv
Формат : Matroska
Версия формата : Version 4
Размер файла : 14,5 Гбайт
Продолжительность : 1 ч. 47 м.
Общий поток : 19,4 Мбит/сек
Название фильма : Rip by msltel
Дата кодирования : UTC 2019-05-28 02:02:41
Программа кодирования : mkvmerge v8.2.0 ('World of Adventure') 64bit
Библиотека кодирования : libebml v1.3.1 + libmatroska v1.4.2

Видео
Идентификатор : 1
Формат : AVC
Формат/Информация : Advanced Video Codec
Профиль формата : High@L4.1
Настройки формата : CABAC / 4 Ref Frames
Параметр CABAC формата : Да
Параметр RefFrames формата : 4 кадра
Идентификатор кодека : V_MPEG4/ISO/AVC
Продолжительность : 1 ч. 47 м.
Битрейт : 17,6 Мбит/сек
Ширина : 1920 пикселей
Высота : 1080 пикселей
Соотношение сторон : 16:9
Режим частоты кадров : Постоянный
Частота кадров : 23,976 (24000/1001) кадра/сек
Цветовое пространство : YUV
Субдискретизация насыщенности : 4:2:0
Битовая глубина : 8 бит
Тип развёртки : Прогрессивная
Бит/(Пиксели*Кадры) : 0.354
Размер потока : 13,2 Гбайт (91%)
Библиотека кодирования : x264 core 157 r2935 545de2f
Настройки программы : cabac=1 / ref=4 / deblock=1:-2:-2 / analyse=0x3:0x113 / me=umh / subme=11 / psy=1 / psy_rd=1.00:0.15 / mixed_ref=1 / me_range=32 / chroma_me=1 / trellis=2 / 8x8dct=1 / cqm=0 / deadzone=21,11 / fast_pskip=0 / chroma_qp_offset=-3 / threads=6 / lookahead_threads=1 / sliced_threads=0 / nr=0 / decimate=1 / interlaced=0 / bluray_compat=0 / constrained_intra=0 / bframes=9 / b_pyramid=2 / b_adapt=2 / b_bias=0 / direct=1 / weightb=1 / open_gop=0 / weightp=2 / keyint=230 / keyint_min=23 / scenecut=40 / intra_refresh=0 / rc_lookahead=40 / rc=crf / mbtree=1 / crf=16.5 / qcomp=0.60 / qpmin=0 / qpmax=69 / qpstep=4 / vbv_maxrate=50000 / vbv_bufsize=62500 / crf_max=0.0 / nal_hrd=none / filler=0 / ip_ratio=1.40 / aq=1:1.00
Язык : English
Default : Да
Forced : Нет

Аудио #1
Идентификатор : 2
Формат : AC-3
Формат/Информация : Audio Coding 3
Коммерческое название : Dolby Digital
Идентификатор кодека : A_AC3
Продолжительность : 1 ч. 47 м.
Вид битрейта : Постоянный
Битрейт : 256 Кбит/сек
Каналы : 2 канала
ChannelLayout : L R
Частота : 48,0 КГц
Частота кадров : 31,250 кадров/сек (1536 SPF)
Битовая глубина : 16 бит
Метод сжатия : С потерями
Размер потока : 196 Мбайт (1%)
Заголовок : DVO
Язык : Russian
ServiceKind/String : Complete Main
Default : Да
Forced : Нет

Аудио #2
Идентификатор : 3
Формат : DTS ES
Формат/Информация : Digital Theater Systems
Коммерческое название : DTS-ES Matrix
Идентификатор кодека : A_DTS
Продолжительность : 1 ч. 47 м.
Вид битрейта : Постоянный
Битрейт : 1509 Кбит/сек
Каналы : 6 каналов
Channel(s)_Original : 7 каналов
ChannelLayout : C L R Ls Rs Cb LFE
Частота : 48,0 КГц
Частота кадров : 93,750 кадра/сек (512 SPF)
Битовая глубина : 24 бит
Метод сжатия : С потерями
Размер потока : 1,13 Гбайт (8%)
Заголовок : original
Язык : English
Default : Нет
Forced : Нет

Текст
Идентификатор : 4
Формат : UTF-8
Идентификатор кодека : S_TEXT/UTF8
Идентификатор кодека/Информация : UTF-8 Plain Text
Продолжительность : 1 ч. 37 м.
Битрейт : 76 бит/сек
ElementCount : 1271
Размер потока : 54,6 Кбайт (0%)
Заголовок : английские
Язык : English
Default : Нет
Forced : Нет

Меню
00:00:00.000 : :Chapter 1
00:02:35.196 : :Chapter 2
00:13:29.433 : :Chapter 3
00:22:46.239 : :Chapter 4
00:32:31.991 : :Chapter 5
00:44:11.774 : :Chapter 6
00:58:49.692 : :Chapter 7
01:10:56.001 : :Chapter 8
01:22:04.461 : :Chapter 9
01:28:11.577 : :Chapter 10
01:32:56.612 : :Chapter 11
01:39:44.895 : :Chapter 12
01:43:46.720 : :Chapter 13



Скачать Свободные через торрент https://b.radikal.ru/b41/1905/dd/585b665ab421.jpg Скачать, смотреть онлайн Свободные бесплантно в хорошем качестве Описание: Музыкальная мелодрама «Свободные» – рассказ о Рене МакКормике, молодом человеке, который вместе с родителями переезжает из Чикаго ... 5 10 1
Торрент: Зарегистрирован [2019-05-29 05:53] · скачан: 2 раз
Статус: √ проверено
Размер: 14.52 GB
Как cкачать? Как скачать Свободные через торрент | UTorrent

% Раздел Тема Автор DL S | L
Фильмы [HD 720p, 1080p] (Звук Cam, VO, DVO) [ 5.58 GB ] Свободные / Footloose | | 720p msltel Скачать
1 | 0

28-11-2019 20:33  


Отключить вcю реклaмy на сайте, в т.ч. и в плеере онлайн просмотра!

    Дорогой пользователь! Огромная просьба, поблагодарите релизера, оцените раздачу и оставьте свои комментарий, если Вы скачали Свободные через торрент бесплатно!!
    Комментировать посты могут только пользователи прошедшие не сложную регистрацию
    Показать сообщения:    


    Свободные через торрент
    Скачать бесплатно Свободные
    Свободные скачать торрент
    Свободные смотреть онлайн
    Cкачать фильм Свободные бесплатно
    Свободные скачать торрент в хорошем качестве
    Свободные смотреть онлайн бесплатно в хорошем качестве
    Вы не можете начинать темы
    Вы не можете отвечать на сообщения
    Вы не можете редактировать свои сообщения
    Вы не можете удалять свои сообщения
    Вы не можете голосовать в опросах
    Вы не можете прикреплять файлы к сообщениям
    Вы можете скачивать файлы
    Свободные / Footloose [1984, драма, мелодрама, музыка, BDRip 1080p ] DVO смотреть онлайн, скачать торрент picoco.icu