1 сезон

3 сезон

iTunes

1

iTunes

DUB Netflix

iTunes

13

1 сезон

RePack

30

Deluxe

pack

Легкие деньги

ВАЖНО

ИГРА 18+

pack

RePack

MK11

RePack

jed

RePack

fifa19

RePack

RDR2

RePack

NEED FOR SPEED™ PAYBACK

4 сезон

9 сезон

Бесстыжие 9 сезон

Все сериалы

все сериалы на PB.wtf

RePack

FAR CRY 5

Anonymous, доброй ночи, мы не успеваем до 1 числа собрать деньги на оплату серверов, помогите нам пожалуйста в это трудное время. В качестве благодарности мы отключим Вам всю рекламу на сайте (укажите свой ник в строку Ваше имя)!

×
  
Magnet ссылка

Толя-робот / Сезон: 1 / Серии: 1-8 из 8 (Алексей Нужный) [2019, драма, комедия, HDTV 1080i] piratbit.org

Толя-робот через торрент piratbit.org

Размер: 17.11 GB | Добавлен: 2 года назад | Торрент скачан:103 раза
Скачать  

29-05-2019 07:11 Толя-робот Скачать торрент  

Толя-робот Год выпуска: 2019
Страна: Россия
Жанр: драма, комедия
Продолжительность: ~ 00:48:00 серия
Перевод: Не требуется
Субтитры: отсутствуют

Режиссер: Алексей Нужный



В ролях:

Александр Паль, Евгений Кулик (II), Маргарита Аброськина, Валентина Мазунина, Азамат Мусагалиев, Александр Никольский, Фёдор Инсаров, Михаил Орлов (III), Евгений Коряковский, Екатерина Директоренко, Елена Валюшкина, Сергей Стёпин, Юлия Гришаева, Максим Костромыкин, Максим Фадеев, Ольга Серябкина

Описание:

Толя — молодой провинциальный парень без рук и ног, который оказывается более сильным, жизнелюбивым и оптимистичным, чем окружающие его люди с руками и ногами. Обретя бионические протезы, он начинает жить на полную катушку: борется за лучшую девушку в своём городе, организует ТСЖ и отстаивает свой дом, включается в жизнь своих близких и увлекает их за собой — к свету и мечте.

Качество: HDTV 1080i
Формат: TS

Видео: MPEG-4 AVC, 5650 Кбит/с, 1920х1080
Аудио: Русский (MP2, 2 ch, 192 Кбит/с)
скриншот   скриншот   скриншот  скриншот  скриншот  

Общее
Идентификатор : 1 (0x1)
Полное имя : D:\Tolya.Robot.2019.HDTV(1080i).wellav\Tolya.Robot.s01e01.HDTV.(1080i).wellav.ts
Формат : MPEG-TS
Размер файла : 2,04 Гбайт
Продолжительность : 47 м. 28 с.
Режим общего битрейта : Переменный
Общий поток : 6148 Кбит/сек

Видео
Идентификатор : 207 (0xCF)
Идентификатор меню : 2207 (0x89F)
Формат : AVC
Формат/Информация : Advanced Video Codec
Профиль формата : High@L4
Параметр CABAC формата : Да
Параметр RefFrames формата : 4 кадра
Идентификатор кодека : 27
Продолжительность : 47 м. 28 с.
Битрейт : 5650 Кбит/сек
Ширина : 1920 пикселей
Высота : 1080 пикселей
Соотношение сторон : 16:9
Частота кадров : 25,000 кадров/сек
Стандарт вещания : Component
Цветовое пространство : YUV
Субдискретизация насыщенности : 4:2:0
Битовая глубина : 8 бит
Тип развёртки : Чересстрочная
Метод сохранения типа развёртки : Раздельные поля
Порядок развёртки : Верхнее поле первое
Бит/(Пиксели*Кадры) : 0.109
Размер потока : 1,87 Гбайт (92%)
Цветовой диапазон : Limited
Основные цвета : BT.709
Характеристики трансфера : BT.709
Коэффициенты матрицы : BT.709

Аудио
Идентификатор : 307 (0x133)
Идентификатор меню : 2207 (0x89F)
Формат : MPEG Audio
Версия формата : Version 1
Профиль формата : Layer 2
Идентификатор кодека : 3
Продолжительность : 47 м. 28 с.
Вид битрейта : Постоянный
Битрейт : 192 Кбит/сек
Каналы : 2 канала
Частота : 48,0 КГц
Метод сжатия : С потерями
Размер потока : 65,2 Мбайт (3%)
Язык : English

Когда раздача ведётся путём добавления новых серий, при каждом добавлении создётся новый торрент. Чтобы начать докачку новой серии, пользователям необходимо сделать следующее:
(1) остановить скачивание,
(2) удалить старый торрент у себя из клиента (старые серии удалять не надо),
(3) скачать новый торрент и запустить его у себя в клиенте вместо старого, при этом указать клиенту путь в старую папку, куда и должно происходить скачивание новых серий.
Ваш клиент при этом должен произвести хеширование (проверку) старой папки (если не производит сам - помогите ему сделать это), и будет докачивать только те серии, которых у вас ещё нет. Старые серии при этом не удаляются, а продолжают раздаваться!
Eсли вы уже удалили старые серии, то предотвратить повторную закачку старых серий можно, отжав галочку в соответсвующих местах при запуске нового торрента. По возможности, желательно не удалять старые серии как можно дольше, чтобы релизёр не столько продолжал раздавать старые серии, а смог сконцентрироваться на новых.
piratbit.org



Скачать Толя-робот через торрент https://i109.fastpic.ru/big/2019/0520/8a/0a617ac5d8091df372966b118290738a.jpg Скачать фильм Толя-робот через торрент бесплантно в хорошем качестве Описание: Толя — молодой провинциальный парень без рук и ног, который оказывается более сильным, жизнелюбивым и оптимистичным, чем ... 10 10 9
Торрент: Зарегистрирован [2019-05-30 21:52] · скачан: 103 раз
Статус: √ проверено
Размер: 17.11 GB
Как cкачать? Как скачать Толя-робот через торрент | UTorrent

% Раздел Тема Автор DL S | L
TNT serials [ 4.69 GB ] Толя-робот / Сезон: 1 / Серии: 1-8 из 8 [2019 WEB-DLRip] bober100 Скачать
1 | 0
TNT serials [ 13.18 GB ] Толя-робот / Сезон: 1 / Серии: 1-8 из 8 [2019 WEB-DL 1080p] bober100 Скачать
1 | 0
TNT serials [ 4.72 GB ] Толя-робот / Сезон: 1 / Серии: 1-8 из 8 [2019 SATRip] bober100 Скачать
1 | 0
TNT serials [ 4.56 GB ] Толя-робот/ Сезон : 1 / Серии: 1-8 из 8 [2019 WEBRip-AVC] Sanekzade1989 Скачать
1 | 0

28-11-2019 20:33  

Отключить всю рекламу на сайте

    Дорогой пользователь! Огромная просьба, поблагодарите релизера, оцените раздачу и оставьте свои комментарий, если Вы скачали Толя-робот через торрент бесплатно! Внесите свою лепту в развитие PiratBit!
    Комментировать посты могут только пользователи прошедшие не сложную регистрацию
    Показать сообщения:    

    Толя-робот через торрент
    Скачать бесплатно Толя-робот
    Толя-робот скачать торрент
    Толя-робот смотреть онлайн
    Cкачать фильм Толя-робот бесплатно
    Толя-робот скачать торрент в хорошем качестве
    Толя-робот смотреть онлайн бесплатно в хорошем качестве


    Вы не можете начинать темы
    Вы не можете отвечать на сообщения
    Вы не можете редактировать свои сообщения
    Вы не можете удалять свои сообщения
    Вы не можете голосовать в опросах
    Вы не можете прикреплять файлы к сообщениям
    Вы можете скачивать файлы