Доктор Стрэндж

Лицензия

Добыча

Дубляж

Дом дракона

1 сезон

Тор

Дубляж

В эфире

Дубляж

Там, где раки поют

MVO

Властелин колец

1 сезон

Ultimate

pack

Рекомендуем

30

Пиратка

ВАЖНО

ВАЖНО

Ghostwire

Пиратка

jed

RePack

nioh2

RePack

RDR2

RePack

NEED FOR SPEED™ PAYBACK

RePack

скачать торрент

Кинопоиск HD

Острые козырьки 6 сезон

6 сезон

FAR CRY 6

RePack

скачать торрент

Лицензия

скачать торрент

MVO

1

1 сезон

скачать торрент

1 сезон

скачать торрент

Лицензия

  

Невероятная правда / The Unbelievable Truth (Хэл Хартли) [1989, драма, мелодрама, комедия, BDRip 1080p ] DVO, VO

Невероятная правда через торрент piratbit.org

Размер: 11.29 GB | Добавлен: 3 года 5 мес. назад | Торрент скачан:5 раз
Смотреть онлайн | Скачать   

01-06-2019 06:22 Невероятная правда Скачать торрент  

Название: Невероятная правда
Оригинальное название: The Unbelievable Truth
Год выпуска: 1989
Страна: США
Жанр: драма, мелодрама, комедия
Продолжительность: 01:30:15
Перевод: закадровый двухголосый, закадровый одноголосый

Режиссер: Хэл Хартли
В ролях: Эдриэнн Шелли, Роберт Джон Бёрк, Крис Кук, Джулия МакНил, Кэтрин Мейфилд, Гэри Соэр, Дэвид Хили, Мэтт Мэллой, Иди Фалко, Джеф Ховард

Описание: Действие происходит в маленьком американском городке. Красавица Одри хотела для себя продолжения отношений со своим бойфрендом, квотербеком в команде её колледжа, и карьеру модели, но тут в городе после отбывания срока за убийство появляется Джош Хаттон. Никто не знает ни кого он убил, ни числа его жертв, ни его самого. Тем не менее отец Одри нанимает его механиком к себе, а вскоре Джош привлекает к себе внимание дочери босса, которая поддаётся влечению и влюбляется в него...



Качество: BDRip 1080p
Формат: MKV
Видео: MPEG-4 AVC, 16 Mбит/с, 1920x1080, 23.976 кадр/с
Аудио 1: русский, AC3, 192 kbps, 2 ch, 48 kHz [закадровый двухголосый, Ульпаней Эльром]
Аудио 2: русский, AC3, 192 kbps, 2 ch, 48 kHz [закадровый одноголосый]
Аудио 3: английский, DTS, 1509 kbps, 2 ch, 48 kHz [оригинал]
Главы/чаптеры
Общее
Уникальный идентификатор : 176019253113655440595741748479868348376 (0x846C13358F9FEE628B43B41546A927D8)
Полное имя : D:\Video\Невероятная правда.1989.BDRip 1080p by msltel.mkv
Формат : Matroska
Версия формата : Version 4
Размер файла : 11,3 Гбайт
Продолжительность : 1 ч. 30 м.
Общий поток : 17,9 Мбит/сек
Название фильма : Rip by msltel
Дата кодирования : UTC 2019-05-31 09:31:55
Программа кодирования : mkvmerge v8.2.0 ('World of Adventure') 64bit
Библиотека кодирования : libebml v1.3.1 + libmatroska v1.4.2

Видео
Идентификатор : 1
Формат : AVC
Формат/Информация : Advanced Video Codec
Профиль формата : High@L4.1
Настройки формата : CABAC / 4 Ref Frames
Параметр CABAC формата : Да
Параметр RefFrames формата : 4 кадра
Идентификатор кодека : V_MPEG4/ISO/AVC
Продолжительность : 1 ч. 30 м.
Битрейт : 16,0 Мбит/сек
Ширина : 1920 пикселей
Высота : 1080 пикселей
Соотношение сторон : 16:9
Режим частоты кадров : Постоянный
Частота кадров : 23,976 (24000/1001) кадра/сек
Цветовое пространство : YUV
Субдискретизация насыщенности : 4:2:0
Битовая глубина : 8 бит
Тип развёртки : Прогрессивная
Бит/(Пиксели*Кадры) : 0.322
Размер потока : 10,1 Гбайт (89%)
Библиотека кодирования : x264 core 157 r2935 545de2f
Настройки программы : cabac=1 / ref=4 / deblock=1:-2:-2 / analyse=0x3:0x113 / me=umh / subme=11 / psy=1 / psy_rd=1.00:0.15 / mixed_ref=1 / me_range=32 / chroma_me=1 / trellis=2 / 8x8dct=1 / cqm=0 / deadzone=21,11 / fast_pskip=0 / chroma_qp_offset=-3 / threads=6 / lookahead_threads=1 / sliced_threads=0 / nr=0 / decimate=1 / interlaced=0 / bluray_compat=0 / constrained_intra=0 / bframes=12 / b_pyramid=2 / b_adapt=2 / b_bias=0 / direct=1 / weightb=1 / open_gop=0 / weightp=2 / keyint=230 / keyint_min=23 / scenecut=40 / intra_refresh=0 / rc_lookahead=40 / rc=crf / mbtree=1 / crf=20.5 / qcomp=0.60 / qpmin=0 / qpmax=69 / qpstep=4 / vbv_maxrate=50000 / vbv_bufsize=62500 / crf_max=0.0 / nal_hrd=none / filler=0 / ip_ratio=1.40 / aq=1:1.00
Язык : English
Default : Да
Forced : Нет

Аудио #1
Идентификатор : 2
Формат : AC-3
Формат/Информация : Audio Coding 3
Коммерческое название : Dolby Digital
Идентификатор кодека : A_AC3
Продолжительность : 1 ч. 30 м.
Вид битрейта : Постоянный
Битрейт : 192 Кбит/сек
Каналы : 2 канала
ChannelLayout : L R
Частота : 48,0 КГц
Частота кадров : 31,250 кадров/сек (1536 SPF)
Битовая глубина : 16 бит
Метод сжатия : С потерями
Размер потока : 124 Мбайт (1%)
Заголовок : DVO Ульпаней Эльром
Язык : Russian
ServiceKind/String : Complete Main
Default : Да
Forced : Нет

Аудио #2
Идентификатор : 3
Формат : AC-3
Формат/Информация : Audio Coding 3
Коммерческое название : Dolby Digital
Идентификатор кодека : A_AC3
Продолжительность : 1 ч. 30 м.
Вид битрейта : Постоянный
Битрейт : 192 Кбит/сек
Каналы : 2 канала
ChannelLayout : L R
Частота : 48,0 КГц
Частота кадров : 31,250 кадров/сек (1536 SPF)
Битовая глубина : 16 бит
Метод сжатия : С потерями
Размер потока : 124 Мбайт (1%)
Заголовок : VO
Язык : Russian
ServiceKind/String : Complete Main
Default : Нет
Forced : Нет

Аудио #3
Идентификатор : 4
Формат : DTS
Формат/Информация : Digital Theater Systems
Идентификатор кодека : A_DTS
Продолжительность : 1 ч. 30 м.
Вид битрейта : Постоянный
Битрейт : 1509 Кбит/сек
Каналы : 2 канала
ChannelLayout : L R
Частота : 48,0 КГц
Частота кадров : 93,750 кадра/сек (512 SPF)
Битовая глубина : 24 бит
Метод сжатия : С потерями
Размер потока : 974 Мбайт (8%)
Заголовок : original
Язык : English
Default : Нет
Forced : Нет

Меню
00:00:00.000 : :Chapter 01
00:05:36.294 : :Chapter 02
00:13:50.704 : :Chapter 03
00:20:33.941 : :Chapter 04
00:31:05.238 : :Chapter 05
00:35:42.765 : :Chapter 06
00:43:04.373 : :Chapter 07
00:50:08.922 : :Chapter 08
00:58:25.418 : :Chapter 09
01:07:19.326 : :Chapter 10
01:13:39.289 : :Chapter 11
01:21:30.886 : :Chapter 12



Скачать Невероятная правда через торрент https://a.radikal.ru/a31/1905/22/d566eb7ff7fe.jpg Скачать, смотреть онлайн Невероятная правда бесплантно в хорошем качестве Описание: Действие происходит в маленьком американском городке. Красавица Одри хотела для себя продолжения отношений со своим бойфрендом, ... 5 10 1
Info! Золотая раздача, скачанное не засчитывается.
Торрент: Зарегистрирован [2019-06-01 06:22] · скачан: 5 раз
Статус: √ проверено
Размер: 11.29 GB
Как cкачать? Как скачать Невероятная правда через торрент | UTorrent

% Раздел Тема Автор DL S | L
Фильмы [HD 720p, 1080p] (Звук Cam, VO, DVO) [ 4.17 GB ] Невероятная правда / The Unbelievable Truth | | 720p msltel Скачать
1 | 0

28-11-2019 20:33  


Отключить вcю реклaмy на сайте, в т.ч. и в плеере онлайн просмотра!

    Дорогой пользователь! Огромная просьба, поблагодарите релизера, оцените раздачу и оставьте свои комментарий, если Вы скачали Невероятная правда через торрент бесплатно!!
    Комментировать посты могут только пользователи прошедшие не сложную регистрацию
    Показать сообщения:    


    Невероятная правда через торрент
    Скачать бесплатно Невероятная правда
    Невероятная правда скачать торрент
    Невероятная правда смотреть онлайн
    Cкачать фильм Невероятная правда бесплатно
    Невероятная правда скачать торрент в хорошем качестве
    Невероятная правда смотреть онлайн бесплатно в хорошем качестве
    Вы не можете начинать темы
    Вы не можете отвечать на сообщения
    Вы не можете редактировать свои сообщения
    Вы не можете удалять свои сообщения
    Вы не можете голосовать в опросах
    Вы не можете прикреплять файлы к сообщениям
    Вы можете скачивать файлы
    Невероятная правда / The Unbelievable Truth [1989, драма, мелодрама, комедия, BDRip 1080p ] DVO, VO смотреть онлайн, скачать торрент picoco.icu