Доктор Стрэндж

Лицензия

Добыча

Дубляж

Дом дракона

1 сезон

Тор

Дубляж

В эфире

Дубляж

Там, где раки поют

MVO

Властелин колец

1 сезон

Ultimate

pack

Рекомендуем

30

Пиратка

ВАЖНО

ВАЖНО

Ghostwire

Пиратка

jed

RePack

nioh2

RePack

RDR2

RePack

NEED FOR SPEED™ PAYBACK

RePack

скачать торрент

Кинопоиск HD

Острые козырьки 6 сезон

6 сезон

FAR CRY 6

RePack

скачать торрент

Лицензия

скачать торрент

MVO

1

1 сезон

скачать торрент

1 сезон

скачать торрент

Лицензия

  

Вырви это сердце / Arráncame la vida (Роберто Снейдер) [2008, драма, BDRip 720p ] DVO

Вырви это сердце через торрент piratbit.org

Размер: 4.25 GB | Добавлен: 3 года 5 мес. назад | Торрент скачан:5 раз
Смотреть онлайн | Скачать   

01-06-2019 09:15 Вырви это сердце Скачать торрент  

Название: Вырви это сердце
Оригинальное название: Arráncame la vida
Год выпуска: 2008
Страна: Мексика
Жанр: драма
Продолжительность: 01:50:30
Перевод: закадровый двухголосый

Режиссер: Роберто Снейдер
В ролях: Ана Клаудия Таланкон, Даниэль Хименес Качо, Хосе Мария де Тавира, Мариана Пеньяльва, Ирене Асуэла, Джэйк Кёниг, Мария Аура, Данна Пала

Описание: Действие происходит в 1930-х годах, спустя два десятилетия после Мексиканской революции. Девушка по имени Каталина Гусман рассказывает историю своей жизни и своего брака с амбициозным генералом Андресом Асенсио. Он занимает пост генерал-губернатора, а она выполняет роль светской дамы. Полностью отдавшись политической карьере мужа, она предана ему, даже несмотря на любовницу и детей, которых ей приходится воспитывать. Зрелой женщиной она влюбляется в молодого дирижёра и левого активиста Карлоса Вивеса, который становится её самой большой любовью и трагедией... По одноимённому роману Анхелес Мастретта (1985).



Качество: BDRip 720p
Формат: MKV
Видео: MPEG-4 AVC, 4864 Кбит/с, 1280x554, 23.976 кадр/с
Аудио 1: русский, AC3, 192 kbps, 2 ch, 48 kHz [закадровый двухголосый, т/к Дождь]
Аудио 2: испанский, AC3, 448 kbps, 6 ch, 48 kHz [оригинал]
Субтитры: английские
Главы/чаптеры
Общее
Уникальный идентификатор : 189579749578534986012394560468658471196 (0x8E9FBB4DD35628EF8D2C0D2C13BCC11C)
Полное имя : D:\Video\Вырви это сердце.2008.BDRip 720p by msltel.mkv
Формат : Matroska
Версия формата : Version 4
Размер файла : 4,25 Гбайт
Продолжительность : 1 ч. 50 м.
Общий поток : 5506 Кбит/сек
Название фильма : Rip by msltel
Дата кодирования : UTC 2019-06-01 02:32:19
Программа кодирования : mkvmerge v8.2.0 ('World of Adventure') 64bit
Библиотека кодирования : libebml v1.3.1 + libmatroska v1.4.2

Видео
Идентификатор : 1
Формат : AVC
Формат/Информация : Advanced Video Codec
Профиль формата : High@L4.1
Настройки формата : CABAC / 9 Ref Frames
Параметр CABAC формата : Да
Параметр RefFrames формата : 9 кадров
Идентификатор кодека : V_MPEG4/ISO/AVC
Продолжительность : 1 ч. 50 м.
Битрейт : 4864 Кбит/сек
Ширина : 1280 пикселей
Высота : 554 пикселя
Соотношение сторон : 2,35:1
Режим частоты кадров : Постоянный
Частота кадров : 23,976 (24000/1001) кадра/сек
Цветовое пространство : YUV
Субдискретизация насыщенности : 4:2:0
Битовая глубина : 8 бит
Тип развёртки : Прогрессивная
Бит/(Пиксели*Кадры) : 0.286
Размер потока : 3,75 Гбайт (88%)
Библиотека кодирования : x264 core 157 r2935 545de2f
Настройки программы : cabac=1 / ref=9 / deblock=1:-2:-2 / analyse=0x3:0x113 / me=umh / subme=11 / psy=1 / psy_rd=1.00:0.15 / mixed_ref=1 / me_range=32 / chroma_me=1 / trellis=2 / 8x8dct=1 / cqm=0 / deadzone=21,11 / fast_pskip=0 / chroma_qp_offset=-3 / threads=6 / lookahead_threads=1 / sliced_threads=0 / nr=0 / decimate=1 / interlaced=0 / bluray_compat=0 / constrained_intra=0 / bframes=13 / b_pyramid=2 / b_adapt=2 / b_bias=0 / direct=1 / weightb=1 / open_gop=0 / weightp=2 / keyint=230 / keyint_min=23 / scenecut=40 / intra_refresh=0 / rc_lookahead=40 / rc=crf / mbtree=1 / crf=15.0 / qcomp=0.60 / qpmin=0 / qpmax=69 / qpstep=4 / vbv_maxrate=50000 / vbv_bufsize=62500 / crf_max=0.0 / nal_hrd=none / filler=0 / ip_ratio=1.40 / aq=1:1.00
Язык : Spanish
Default : Да
Forced : Нет

Аудио #1
Идентификатор : 2
Формат : AC-3
Формат/Информация : Audio Coding 3
Коммерческое название : Dolby Digital
Идентификатор кодека : A_AC3
Продолжительность : 1 ч. 50 м.
Вид битрейта : Постоянный
Битрейт : 192 Кбит/сек
Каналы : 2 канала
ChannelLayout : L R
Частота : 48,0 КГц
Частота кадров : 31,250 кадров/сек (1536 SPF)
Битовая глубина : 16 бит
Метод сжатия : С потерями
Размер потока : 152 Мбайт (3%)
Заголовок : DVO Телеканал Дождь
Язык : Russian
ServiceKind/String : Complete Main
Default : Да
Forced : Нет

Аудио #2
Идентификатор : 3
Формат : AC-3
Формат/Информация : Audio Coding 3
Коммерческое название : Dolby Digital
Идентификатор кодека : A_AC3
Продолжительность : 1 ч. 50 м.
Вид битрейта : Постоянный
Битрейт : 448 Кбит/сек
Каналы : 6 каналов
ChannelLayout : L R C LFE Ls Rs
Частота : 48,0 КГц
Частота кадров : 31,250 кадров/сек (1536 SPF)
Битовая глубина : 16 бит
Метод сжатия : С потерями
Размер потока : 354 Мбайт (8%)
Заголовок : original
Язык : English
ServiceKind/String : Complete Main
Default : Нет
Forced : Нет

Текст
Идентификатор : 4
Формат : UTF-8
Идентификатор кодека : S_TEXT/UTF8
Идентификатор кодека/Информация : UTF-8 Plain Text
Продолжительность : 1 ч. 42 м.
Битрейт : 56 бит/сек
ElementCount : 1352
Размер потока : 42,5 Кбайт (0%)
Заголовок : английские
Язык : English
Default : Нет
Forced : Нет

Меню
00:00:00.000 : :Chapter 1
00:20:01.825 : :Chapter 2
00:40:02.400 : :Chapter 3
01:00:03.599 : :Chapter 4
01:20:22.317 : :Chapter 5
01:40:06.000 : :Chapter 6



Скачать Вырви это сердце через торрент https://c.radikal.ru/c05/1906/eb/79b884ff7017.jpg Скачать, смотреть онлайн Вырви это сердце бесплантно в хорошем качестве Описание: Действие происходит в 1930-х годах, спустя два десятилетия после Мексиканской революции. Девушка по имени Каталина Гусман ... 5 10 1
Торрент: Зарегистрирован [2019-06-01 09:15] · скачан: 5 раз
Статус: √ проверено
Размер: 4.25 GB
Как cкачать? Как скачать Вырви это сердце через торрент | UTorrent

% Раздел Тема Автор DL S | L
Фильмы [HD 720p, 1080p] (Звук Cam, VO, DVO) [ 10.05 GB ] Вырви это сердце / Arráncame la vida | | 1080p msltel Скачать
1 | 0

28-11-2019 20:33  


Отключить вcю реклaмy на сайте, в т.ч. и в плеере онлайн просмотра!

    Дорогой пользователь! Огромная просьба, поблагодарите релизера, оцените раздачу и оставьте свои комментарий, если Вы скачали Вырви это сердце через торрент бесплатно!!
    Комментировать посты могут только пользователи прошедшие не сложную регистрацию
    Показать сообщения:    


    Вырви это сердце через торрент
    Скачать бесплатно Вырви это сердце
    Вырви это сердце скачать торрент
    Вырви это сердце смотреть онлайн
    Cкачать фильм Вырви это сердце бесплатно
    Вырви это сердце скачать торрент в хорошем качестве
    Вырви это сердце смотреть онлайн бесплатно в хорошем качестве
    Вы не можете начинать темы
    Вы не можете отвечать на сообщения
    Вы не можете редактировать свои сообщения
    Вы не можете удалять свои сообщения
    Вы не можете голосовать в опросах
    Вы не можете прикреплять файлы к сообщениям
    Вы можете скачивать файлы
    Вырви это сердце / Arráncame la vida [2008, драма, BDRip 720p ] DVO смотреть онлайн, скачать торрент picoco.icu