MEGA SALE -50% FORZA HORIZON 4 ULTIMATE+ВСЕ DLC+ОНЛАЙН всего за 599р. 299 руб. (супер цена). Внимание количество ограничено!!!

iTunes

1+1

iTunes

мы

iTunes

1

iTunes

Чернобыль

1 сезон

Ральф против интернета

Лицензия

ПШазам

Лицензия

Игра престолов

Лицензия

30
pack

ВАЖНО

!!Акция!!

Alien_RageХит недели

RePack

Resident Evil 21

ИГРА 18+

pack

RePack

Metro:Exodus

!!Акция!!

Alien_Rage

RePack

fifa19

RePack

Assassins Creed: Odyssey

RePack

NEED FOR SPEED™ PAYBACK

3 сезон

9 сезон

Бесстыжие 9 сезон

Все сериалы

все сериалы на PB.wtf

RePack

FAR CRY 5
Ребята, катастрофически не хватает 7730р. для оплаты серверов за ИЮЛЬ (всвязи с блокировками трафик упал в 3 раза), 1-2р., выручайте.
  

Благие знамения / Good Omens / Сезон: 1 / Серии: 1-6 из 6 (Дуглас Маккиннон) [2019, фэнтези, комедия, WEBRip] MVO [AlexFilm] piratbit.org

Благие знамения через торрент piratbit.org

Раздают: 4 [ 0 KB/s ] Качают: 1 [ 0 KB/s ]
Размер: 6.39 GB | Добавлен: 2 мес. 10 д. назад | Торрент скачан:168 раз
Скачать  

02-06-2019 19:42 Благие знамения Скачать торрент  

Благие знамения / Good Omens Год выпуска: 2019
Страна: Великобритания, США
Жанр: фэнтези, комедия
Продолжительность: ~ 00:51:00
Перевод: Профессиональный (многоголосый закадровый) | AlexFilm
Субтитры: Русские, английские

Режиссёр: Дуглас Маккиннон

В ролях:

Майкл Шин, Дэвид Теннант, Фрэнсис МакДорманд, Шан Брук, Дэниэл Мейс, Сэм Тейлор Бак, Джон Хэмм, Адриа Архона, Пол Чахиди, Нед Деннехи

Описание:

В центре сюжета ангел Азирафель и демон Кроули, которые объединяют усилия, чтобы предотвратить конец света, так как за долгие века успели привыкнуть к жизни на земле.

rating


Качество: WEBRip
Формат: AVI
Видео кодек: XviD

Видео: 704x304 (2.32:1), 25 fps, XviD build 73 ~2000 kbps avg, 0.37 bit/pixel
Аудио Rus: 48 kHz, AC3 Dolby Digital, 3/2 (L,C,R,l,r) + LFE ch, ~384 kbps
Аудио Eng: 48 kHz, AC3 Dolby Digital, 3/2 (L,C,R,l,r) + LFE ch, ~384 kbps
Общее
Полное имя                               : D:\Good Omens Season 1 WEBRip\Good.Omens.s01e01.WEBRip.RGzsRutracker.avi
Формат                                   : AVI
Формат/Информация                        : Audio Video Interleave
Размер файла                             : 1020 Мбайт
Продолжительность                        : 51 м. 15 с.
Общий поток                              : 2782 Кбит/сек
Программа кодирования                    : VirtualDubMod 1.5.10.3 | www.virtualdub-fr.org || (build 2550/release)
Библиотека кодирования                   : VirtualDubMod build 2550/release

Видео
Идентификатор                            : 0
Формат                                   : MPEG-4 Visual
Профиль формата                          : Advanced Simple@L5
Настройки формата                        : BVOP1
Параметр BVOP формата                    : 1
Параметр QPel формата                    : Нет
Параметр GMC формата                     : Без точки перехода
Параметр матрицы формата                 : Default (MPEG)
Идентификатор кодека                     : XVID
Идентификатор кодека/Подсказка           : XviD
Продолжительность                        : 51 м. 15 с.
Битрейт                                  : 2000 Кбит/сек
Ширина                                   : 704 пикселя
Высота                                   : 304 пикселя
Соотношение сторон                       : 2,35:1
Частота кадров                           : 25,000 кадров/сек
Цветовое пространство                    : YUV
Субдискретизация насыщенности            : 4:2:0
Битовая глубина                          : 8 бит
Тип развёртки                            : Прогрессивная
Метод сжатия                             : С потерями
Бит/(Пиксели*Кадры)                      : 0.374
Размер потока                            : 733 Мбайт (72%)
Библиотека кодирования                   : XviD 73

Аудио #1
Идентификатор                            : 1
Формат                                   : AC-3
Формат/Информация                        : Audio Coding 3
Идентификатор кодека                     : 2000
Продолжительность                        : 51 м. 15 с.
Вид битрейта                             : Постоянный
Битрейт                                  : 384 Кбит/сек
Каналы                                   : 6 каналов
Расположение каналов                     : Front: L C R, Side: L R, LFE
Частота                                  : 48,0 КГц
Частота кадров                           : 31,250 кадров/сек (1536 SPF)
Битовая глубина                          : 16 бит
Метод сжатия                             : С потерями
Размер потока                            : 141 Мбайт (14%)
Выравнивание                             : Разделение по промежуткам
Продолжительность промежутка             : 40  мс. (1,00 видеокадр)
Время предзагрузки промежутка            : 500  мс.
ServiceKind/String                       : Complete Main

Аудио #2
Идентификатор                            : 2
Формат                                   : AC-3
Формат/Информация                        : Audio Coding 3
Идентификатор кодека                     : 2000
Продолжительность                        : 51 м. 15 с.
Вид битрейта                             : Постоянный
Битрейт                                  : 384 Кбит/сек
Каналы                                   : 6 каналов
Расположение каналов                     : Front: L C R, Side: L R, LFE
Частота                                  : 48,0 КГц
Частота кадров                           : 31,250 кадров/сек (1536 SPF)
Битовая глубина                          : 16 бит
Метод сжатия                             : С потерями
Размер потока                            : 141 Мбайт (14%)
Выравнивание                             : Разделение по промежуткам
Продолжительность промежутка             : 40  мс. (1,00 видеокадр)
Время предзагрузки промежутка            : 500  мс.
ServiceKind/String                       : Complete Main
скриншот  скриншот  скриншот  скриншот  скриншот  
Внимание! Раздача ведётся путём добавления новых серий; при каждом добавлении создаётся новый торрент. Чтобы начать докачку новой серии,пользователям необходимо сделать следующее:
(1) остановить скачивание,
(2) удалить старый торрент у себя из клиента (старые серии удалять не надо),
(3) скачать новый торрент и запустить его у себя в клиенте вместо старого, при этом указать клиенту путь в старую папку куда и должнопроисходить скачивание новых серий.

Ваш клиент при этом должен произвести хеширование (проверку) старой папки (если не производит сам - помогите ему сделать это), и будет докачивать только те серии
которых у вас ещё нет. Старые серии при этом не удаляются, а продолжают раздаваться!

Eсли вы уже удалили старые серии, то предотвратить повторную закачку старых серий можно, отжав галочку в соответствующих местах при запуске нового торрента.

По возможности, желательно не удалять старые серии как можно дольше чтобы релизёр не столько продолжал раздавать старые серии, а смог сконцентрироваться на новых.
piratbit.org



Скачать Благие знамения через торрент https://i110.fastpic.ru/big/2019/0602/f3/7c8312e24eaa87f61a6bb40159ce7ef3.jpg Скачать фильм Благие знамения через торрент бесплантно в хорошем качестве Описание:В центре сюжета ангел Азирафель и демон Кроули, которые объединяют усилия, чтобы предотвратить конец света, так как за долгие века ... 9.1 10 7
Торрент: Зарегистрирован [2019-06-12 04:03] · скачан: 168 раз
Статус: √ проверено
Размер: 6.39 GB
Как cкачать? Как скачать Благие знамения через торрент | qTorrent

% Раздел Тема Автор DL S | L
Зарубежные сериалы [ 20.93 GB ] Благие знамения / Good Omens / Сезон: 1 / Серии: 1-6 из 6 [2019 WEB-DL 1080p] DVO [Кубик в Кубе] bober100 Скачать
4 | 0
Зарубежные сериалы [ 20.93 GB ] Благие знамения / Good Omens / Сезон: 1 / Серии: 1-6 из 6 [2019 WEB-DL 1080p] MVO [Lostfilm] bober100 Скачать
2 | 0
Зарубежные сериалы [ 6.8 GB ] Благие знамения / Good Omens / Сезон: 1 / Серии: 1-6 из 6 [2019 WEB-DLRip-AVC] MVO [AlexFilm LostFilm] - ExKinoRay Enigma2010 Скачать
36 | 7
Зарубежные сериалы [ 30.77 GB ] Благие знамения / Good Omens / Сезон 1 / Серии 1-6 из 6 [2019 UHD WEB-DL 2160p] MVO [LostFilm] sheker187 Скачать
1 | 0
Зарубежные сериалы [ 20.05 GB ] Благие знамения / Good Omens / Сезон: 1 / Серии: 1-6 из 6 [2019 WEB-DL 1080p] [MVO] killermax2013 Скачать
1 | 0
Зарубежные сериалы [ 20.49 GB ] Благие знамения / Good Omens / Сезон: 1 / Серии: 1-6 из 6 [2019 WEB-DL 1080p] MVO [TVShows] bober100 Скачать
3 | 0
Зарубежные сериалы [ 8.3 GB ] Благие знамения / Good Omens / Сезон: 1 / Серии: 1-6 из 6 [2019 WEB-DL 720p] MVO [LostFilm] bober100 Скачать
2 | 0


>> Регистрируемся здесь <<






Отзывы и комментарии о схеме читаем и пишем здесь: ---> Отзывы и комментарии о схеме

Новые благодарочки в телеграм довольных пользователей:
скриншот   скриншот   скриншот   скриншот   скриншот
    Дорогой пользователь! Огромная просьба, поблагодарите релизера, оцените раздачу и оставьте свои комментарий, если Вы скачали Благие знамения через торрент бесплатно! Внесите свою лепту в развитие PiratBit!
    Комментировать посты могут только пользователи прошедшие не сложную регистрацию
    Показать сообщения:    

    Благие знамения через торрент
    Скачать бесплатно Благие знамения
    Благие знамения скачать торрент
    Благие знамения смотреть онлайн
    Cкачать фильм Благие знамения бесплатно
    Благие знамения скачать торрент в хорошем качестве
    Благие знамения смотреть онлайн бесплатно в хорошем качестве


    Вы не можете начинать темы
    Вы не можете отвечать на сообщения
    Вы не можете редактировать свои сообщения
    Вы не можете удалять свои сообщения
    Вы не можете голосовать в опросах
    Вы не можете прикреплять файлы к сообщениям
    Вы можете скачивать файлы