1 сезон

3 сезон

iTunes

1

iTunes

DUB Netflix

iTunes

13

1 сезон

RePack

30

Deluxe

pack

Легкие деньги

ВАЖНО

ИГРА 18+

pack

RePack

MK11

RePack

jed

RePack

fifa19

RePack

RDR2

RePack

NEED FOR SPEED™ PAYBACK

4 сезон

9 сезон

Бесстыжие 9 сезон

Все сериалы

все сериалы на PB.wtf

RePack

FAR CRY 5

Anonymous, добрый вечер, мы не успеваем до 1 числа собрать деньги на оплату серверов, помогите нам пожалуйста в это трудное время. В качестве благодарности мы отключим Вам всю рекламу на сайте (укажите свой ник в строку Ваше имя)!

×
  
Magnet ссылка

СашаТаня / Сезон: 8 / Серии: 1-16 из 16 (Михаил Старчак, Андрей Богатырёв, Александр Потапов) [2019, комедия, HDTV 1080i] piratbit.org

СашаТаня через торрент piratbit.org

Размер: 13.79 GB | Добавлен: 1 год 11 мес. назад | Торрент скачан:41 раз
Скачать  

03-06-2019 19:01 СашаТаня Скачать торрент  

СашаТаня Год выпуска: 2019
Страна: Россия
Жанр: комедия
Продолжительность: ~ 00:25:00
Перевод: Не требуется
Субтитры: отсутствуют

Режиссер: Михаил Старчак, Андрей Богатырёв, Александр Потапов

rating


В ролях:

Андрей Гайдулян, Валентина Рубцова, Алексей Климушкин, Андрей Свиридов, Алексей Лемар, Лариса Баранова (II), Арарат Кещян, Павел Кассинский, Алина Ланина, Сергей Рудзевич, Татьяна Орлова, Олег Новиков (II), Андрей Лебедев, Ксения Хаирова, Виталий Гогунский, Сергей Мурзин, Михаил Полосухин, Веста Буркот, Александра Булычёва, Ёлка, Григорий Адаменко, Александр Корженков, Евгения Брагина, Александр Берлин (II), Олеся Галькевич, Михаил Солодовник, Ираида Краснопольская, Дмитрий Лямочкин, Марина Барсукова, Сергей Балашов (III), Николай Стародубцев, Владимир Витан, Виктория Герасимова, Яна Чигир, Владимир Епифанцев, Наталья Гудкова, Артём Грот, Дмитрий Гриневич, Александр Шам, Светлана Тимофеева-Летуновская, Вячеслав Морозов, Анастасия Уколова, Андрей Москвичёв, Игорь Кудряшов, Ирина Котельникова, Дмитрий Калистратов, Екатерина Казакова, Евгений Василенко, Олег Жуков, Евгения Ярушникова, Милена Нестерова, Андрей Пынзару, Максим Дромашко, Иван Руденко, Николай Лунин (II), Пётр Корнеев

Описание:

Сериал про молодую семью Сергеевых. После окончания института Саша и Таня вместе со своим маленьким сыном Алёшкой решили пожить самостоятельно и сняли квартиру в Южном Бутово. Райончик конечно не из лучших, но зато и цены на жилье тут доступные, ведь Саша не собирается пользоваться миллиардами своего папы. Но Сильвестр Андреевич не собирается так просто отставать от молодых и тем более от своего внука. Поэтому он поселился по соседству, только в просторной и роскошной квартире.

Качество: HDTV 1080i
Формат: TS

Видео: 1920х1080 (16:9), 25 fps, AVC MPEG-4 (x264), High@L4.0 ~ 5 600 kbps avg, 0.135 bit/pixel
Аудио: 48 kHz, MPEG Layer 2, 2 ch, ~ 192 kbps avg
скриншот  скриншот  скриншот  скриншот  

Общее
Идентификатор : 1 (0x1)
Полное имя : D:\SashaTanya.08.2019.HDTV.(1080i).ExKinoRay\SashaTanya.08.(01.seriya).2019.HDTV.(1080i).ExKinoRay.ts
Формат : MPEG-TS
Размер файла : 920 Мбайт
Продолжительность : 21 м. 32 с.
Режим общего битрейта : Переменный
Общий поток : 5973 Кбит/сек

Видео
Идентификатор : 69 (0x45)
Идентификатор меню : 1 (0x1)
Формат : AVC
Формат/Информация : Advanced Video Codec
Профиль формата : High@L4
Параметр CABAC формата : Да
Параметр RefFrames формата : 4 кадра
Идентификатор кодека : 27
Продолжительность : 21 м. 32 с.
Битрейт : 5484 Кбит/сек
Ширина : 1920 пикселей
Высота : 1080 пикселей
Соотношение сторон : 16:9
Частота кадров : 25,000 кадров/сек
Стандарт вещания : Component
Цветовое пространство : YUV
Субдискретизация насыщенности : 4:2:0
Битовая глубина : 8 бит
Тип развёртки : Чересстрочная
Метод сохранения типа развёртки : Раздельные поля
Порядок развёртки : Верхнее поле первое
Бит/(Пиксели*Кадры) : 0.106
Размер потока : 845 Мбайт (92%)
Цветовой диапазон : Limited
Основные цвета : BT.709
Характеристики трансфера : BT.709
Коэффициенты матрицы : BT.709

Аудио
Идентификатор : 68 (0x44)
Идентификатор меню : 1 (0x1)
Формат : MPEG Audio
Версия формата : Version 1
Профиль формата : Layer 2
Идентификатор кодека : 3
Продолжительность : 21 м. 32 с.
Вид битрейта : Постоянный
Битрейт : 192 Кбит/сек
Каналы : 2 канала
Частота : 48,0 КГц
Метод сжатия : С потерями
Задержка видео : -40 мс.
Размер потока : 29,6 Мбайт (3%)
Язык : Russian

Когда раздача ведётся путём добавления новых серий, при каждом добавлении создётся новый торрент. Чтобы начать докачку новой серии, пользователям необходимо сделать следующее:
(1) остановить скачивание,
(2) удалить старый торрент у себя из клиента (старые серии удалять не надо),
(3) скачать новый торрент и запустить его у себя в клиенте вместо старого, при этом указать клиенту путь в старую папку, куда и должно происходить скачивание новых серий.
Ваш клиент при этом должен произвести хеширование (проверку) старой папки (если не производит сам - помогите ему сделать это), и будет докачивать только те серии, которых у вас ещё нет. Старые серии при этом не удаляются, а продолжают раздаваться!
Eсли вы уже удалили старые серии, то предотвратить повторную закачку старых серий можно, отжав галочку в соответсвующих местах при запуске нового торрента. По возможности, желательно не удалять старые серии как можно дольше, чтобы релизёр не столько продолжал раздавать старые серии, а смог сконцентрироваться на новых.
piratbit.org



Скачать СашаТаня через торрент http://img14.lostpic.net/2019/05/27/fd70f48bd67cb16949a25e2cb00833f1.jpg Скачать фильм СашаТаня через торрент бесплантно в хорошем качестве Описание: Сериал про молодую семью Сергеевых. После окончания института Саша и Таня вместе со своим маленьким сыном Алёшкой решили пожить ... 7.8 10 4
Торрент: Зарегистрирован [2019-07-06 12:17] · скачан: 41 раз
Статус: √ проверено
Размер: 13.79 GB
Как cкачать? Как скачать СашаТаня через торрент | UTorrent

% Раздел Тема Автор DL S | L
TNT serials [ 4.56 GB ] СашаТаня / Сезон: 8 / Серии: 1-16 из 16 [2019 WEBRip-AVC] bober100 Скачать
1 | 1
TNT serials [ 7.08 GB ] СашаТаня / Сезон: 8 / Серии: 1-16 из 16 [2019 WEB-DL 720p] bober100 Скачать
1 | 0
TNT serials [ 13.2 GB ] СашаТаня / Сезон: 8 / Серии: 1-16 из 16 [2019 WEB-DL 1080p] bober100 Скачать
1 | 0

28-11-2019 20:33  

Отключить всю рекламу на сайте

    Дорогой пользователь! Огромная просьба, поблагодарите релизера, оцените раздачу и оставьте свои комментарий, если Вы скачали СашаТаня через торрент бесплатно! Внесите свою лепту в развитие PiratBit!
    Комментировать посты могут только пользователи прошедшие не сложную регистрацию
    Показать сообщения:    

    СашаТаня через торрент
    Скачать бесплатно СашаТаня
    СашаТаня скачать торрент
    СашаТаня смотреть онлайн
    Cкачать фильм СашаТаня бесплатно
    СашаТаня скачать торрент в хорошем качестве
    СашаТаня смотреть онлайн бесплатно в хорошем качестве


    Вы не можете начинать темы
    Вы не можете отвечать на сообщения
    Вы не можете редактировать свои сообщения
    Вы не можете удалять свои сообщения
    Вы не можете голосовать в опросах
    Вы не можете прикреплять файлы к сообщениям
    Вы можете скачивать файлы