Лицензия

MVO

1

1 сезон

Лицензия

Лицензия

13

MVO

1 сезон

Deluxe Edition

pack

Рекомендуем

30

Repack

ВАЖНО

ВАЖНО

Ghostwire

RePack

jed

RePack

fifa19

RePack

RDR2

RePack

NEED FOR SPEED™ PAYBACK

RePack

Кинопоиск HD

 Острые козырьки 6 сезон

6 сезон

FAR CRY 6

RePack

Лицензия

MVO

1

1 сезон

1 сезон

Лицензия

  

Павлик Морозов (Лев Дурасов) [1963, драма, SATRip от AVP Studio]

Павлик Морозов через торрент piratbit.org

Размер: 1.09 GB | Добавлен: 3 года 3 мес. назад | Торрент скачан:25 раз
Смотреть онлайн Павлик Морозов | Скачать   

04-06-2019 09:52 Павлик Морозов Скачать торрент  

Павлик Морозов
Страна: СССР
Производство: Беларусьфильм

Жанр: драма
Год выпуска: 1963
Продолжительность: 01:31:22

Перевод: Не требуется
Cубтитры: нет
Оригинальная аудиодорожка: русский

Режиссер: Лев Дурасов

В ролях:
Петр Подъяпольский, Галина Кирюшина, Валерий Горбунов, Борис Телегин, Сергей Чернышёв, Людмила Гайликовская, Евгений Буренков, Владимир Головин (II), Николай Светловидов, Ольга Чуваева, Варвара Обухова, Александр Грузинский, Михаил Кононов, Геннадий Сергеев...
Об актёрах подробней

Описание:
Фильм снят по одноименной повести А. Яковлева о самом известном пионере тридцатых годов прошлого столетия, который был вписан в историю пионерии под номером 1.

Исходник: DVB
Качество видео: SATRip
Формат видео: AVI

Видео: 704x400 (16:9), 25,000 кадров/сек, XviD ~ 1507 kbps avg, 0.214 bit/pixel
Аудио: 48 kHz, Dolby Digital AC3 2.0, 192 kbps

Раздача от:
Общее
Полное имя : Pavlik.Morozov.1963.SATRip_[New-team]_by_AVP_Studio.avi
Формат : AVI
Формат/Информация : Audio Video Interleave
Размер файла : 1,09 Гбайт
Продолжительность : 1 ч. 31 м.
Общий поток : 1709 Кбит/сек
Программа кодирования : VirtualDubMod 1.5.10.3 | www.virtualdub-fr.org || (build 2550/release)
Библиотека кодирования : VirtualDubMod build 2550/release

Видео
Идентификатор : 0
Формат : MPEG-4 Visual
Профиль формата : Advanced Simple@L5
Настройки формата : BVOP1 / Custom Matrix
Параметр BVOP формата : 1
Параметр QPel формата : Нет
Параметр GMC формата : Без точки перехода
Параметр матрицы формата : Выборочная
Идентификатор кодека : XVID
Идентификатор кодека/Подсказка : XviD
Продолжительность : 1 ч. 31 м.
Битрейт : 1507 Кбит/сек
Ширина : 704 пикселя
Высота : 400 пикселей
Соотношение сторон : 16:9
Частота кадров : 25,000 кадров/сек
Цветовое пространство : YUV
Субдискретизация насыщенности : 4:2:0
Битовая глубина : 8 бит
Тип развёртки : Прогрессивная
Метод сжатия : С потерями
Бит/(Пиксели*Кадры) : 0.214
Размер потока : 985 Мбайт (88%)
Библиотека кодирования : XviD 73

Аудио
Идентификатор : 1
Формат : AC-3
Формат/Информация : Audio Coding 3
Коммерческое название : Dolby Digital
Идентификатор кодека : 2000
Продолжительность : 1 ч. 31 м.
Вид битрейта : Постоянный
Битрейт : 192 Кбит/сек
Каналы : 2 канала
ChannelLayout : L R
Частота : 48,0 КГц
Частота кадров : 31,250 кадров/сек (1536 SPF)
Битовая глубина : 16 бит
Метод сжатия : С потерями
Размер потока : 125 Мбайт (11%)
Выравнивание : Разделение по промежуткам
Продолжительность промежутка : 40 мс. (1,00 видеокадр)
Время предзагрузки промежутка : 500 мс.
[url=http://picplus.ru/img/1906/04/0f94a108.png][img]http://picplu



Скачать Павлик Морозов через торрент http://d.radikal.ru/d36/1911/3c/774aeb420937.png Скачать, смотреть онлайн Павлик Морозов бесплантно в хорошем качестве Описание:Фильм снят по одноименной повести А. Яковлева о самом известном пионере тридцатых годов прошлого столетия, который был вписан в ... 10 10 2
Info! Золотая раздача, скачанное не засчитывается.
Торрент: Зарегистрирован [2019-06-04 09:52] · скачан: 25 раз
Статус: √ проверено
Размер: 1.09 GB
Как cкачать? Как скачать Павлик Морозов через торрент | UTorrent

% Раздел Тема Автор DL S | L
Кино СССР [ 1.09 GB ] Павлик Морозов | | SATRip-AVC от AVP Studio AVP Studio Скачать
1 | 0

28-11-2019 20:33  

Отключить вcю реклaмy на сайте

    Дорогой пользователь! Огромная просьба, поблагодарите релизера, оцените раздачу и оставьте свои комментарий, если Вы скачали Павлик Морозов через торрент бесплатно!!
    Комментировать посты могут только пользователи прошедшие не сложную регистрацию
    Показать сообщения:    


    Павлик Морозов через торрент
    Скачать бесплатно Павлик Морозов
    Павлик Морозов скачать торрент
    Павлик Морозов смотреть онлайн
    Cкачать фильм Павлик Морозов бесплатно
    Павлик Морозов скачать торрент в хорошем качестве
    Павлик Морозов смотреть онлайн бесплатно в хорошем качестве
    Вы не можете начинать темы
    Вы не можете отвечать на сообщения
    Вы не можете редактировать свои сообщения
    Вы не можете удалять свои сообщения
    Вы не можете голосовать в опросах
    Вы не можете прикреплять файлы к сообщениям
    Вы можете скачивать файлы