1 сезон

3 сезон

iTunes

1

iTunes

DUB Netflix

iTunes

13

1 сезон

RePack

30

Deluxe

pack

Легкие деньги

ВАЖНО

ИГРА 18+

pack

RePack

MK11

RePack

jed

RePack

fifa19

RePack

RDR2

RePack

NEED FOR SPEED™ PAYBACK

4 сезон

9 сезон

Бесстыжие 9 сезон

Все сериалы

все сериалы на PB.wtf

RePack

FAR CRY 5

Anonymous, добрый день, мы не успеваем до 1 числа собрать деньги на оплату серверов, помогите нам пожалуйста в это трудное время. В качестве благодарности мы отключим Вам всю рекламу на сайте (укажите свой ник в строку Ваше имя)!

×
  
Magnet ссылка

Секта / Сезон: 1 / Серии: 1-8 из 8 (Гела Баблуани) [2019, Драма, триллер, WEB-DLRip-AVC] piratbit.org

Секта через торрент piratbit.org

Раздают: 1 [ 0 KB/s ]
Размер: 4.64 GB | Добавлен: 1 год назад | Торрент скачан:106 раз
Скачать  

04-06-2019 20:58 Секта Скачать торрент  

Секта
Год выпуска: 2019
Страна: Россия
Жанр: Драма, триллер
Продолжительность: ~ 00:45:00
Перевод: Не требуется
Субтитры: отсутствуют

Режиссер: Гела Баблуани

rating

В ролях: Светлана Ходченкова, Анастасия Чистякова (II), Филипп Янковский, Евгений Коряковский, Гела Баблуани, Андрей Филиппак, Вера Романова, Павел Кузьмин, Григорий Сиятвинда, Марта Тимофеева, Екатерина Волкова

Описание: Специалисты по выводу людей из культов, депрограммеры, получают заказ освободить из секты «Первозданных» звезду рекламных роликов, девушку Нику. Методы депрограммеров крайне жесткие – на грани психологического и физического насилия. Для ухода за Никой депрограммеры нанимают сиделку Лилю. Но все идет не по плану, когда могущественный лидер секты объявляет настоящую войну депрограммерам и идет на все, чтобы вернуть Нику...

Качество: WEB-DLRip-AVC
Формат: MKV

Видео: 1024x576, (16:9), 25 fps, AVC MPEG-4 (x264), High@L4.1 ~ 1800 kbps , 0.122 bit/pixel
Аудио: AC3 Dolby Digital, 48.0 kHz, 2/0 (L,R) ch, 192 kbps
скриншот  скриншот  скриншот  скриншот  скриншот  

General
Unique ID : 244075370473191233980840848926373049039 (0xB79F34DB19217D3881B6D60B6FABF2CF)
Complete name : Секта (1 сер.).mkv
Format : Matroska
Format version : Version 2
File size : 629 MiB
Duration : 44 min 8 s
Overall bit rate : 1 993 kb/s
Encoded date : UTC 2020-05-23 05:33:00
Writing application : mkvmerge v7.8.0 ('River Man') 32bit built on Apr 3 2015 12:11:22
Writing library : libebml v1.3.1 + libmatroska v1.4.2

Video
ID : 1
Format : AVC
Format/Info : Advanced Video Codec
Format profile : High@L4.1
Format settings : CABAC / 9 Ref Frames
Format settings, CABAC : Yes
Format settings, Reference : 9 frames
Codec ID : V_MPEG4/ISO/AVC
Duration : 44 min 8 s
Bit rate : 1 800 kb/s
Width : 1 024 pixels
Height : 576 pixels
Display aspect ratio : 16:9
Frame rate mode : Constant
Frame rate : 25.000 FPS
Color space : YUV
Chroma subsampling : 4:2:0
Bit depth : 8 bits
Scan type : Progressive
Bits/(Pixel*Frame) : 0.122
Stream size : 556 MiB (88%)
Writing library : x264 core 157 r2935 545de2f
Encoding settings : cabac=1 / ref=9 / deblock=1:-1:-1 / analyse=0x3:0x133 / me=umh / subme=10 / psy=1 / psy_rd=1.00:0.15 / mixed_ref=1 / me_range=24 / chroma_me=1 / trellis=2 / 8x8dct=1 / cqm=0 / deadzone=21,11 / fast_pskip=1 / chroma_qp_offset=-3 / threads=9 / lookahead_threads=1 / sliced_threads=0 / nr=0 / decimate=1 / interlaced=0 / bluray_compat=0 / stitchable=1 / constrained_intra=0 / bframes=9 / b_pyramid=2 / b_adapt=2 / b_bias=0 / direct=3 / weightb=1 / open_gop=0 / weightp=2 / keyint=250 / keyint_min=25 / scenecut=40 / intra_refresh=0 / rc_lookahead=60 / rc=2pass / mbtree=1 / bitrate=1800 / ratetol=1.0 / qcomp=0.60 / qpmin=0 / qpmax=69 / qpstep=4 / cplxblur=20.0 / qblur=0.5 / ip_ratio=1.40 / aq=1:1.00
Default : Yes
Forced : No

Audio
ID : 2
Format : AC-3
Format/Info : Audio Coding 3
Commercial name : Dolby Digital
Codec ID : A_AC3
Duration : 44 min 8 s
Bit rate mode : Constant
Bit rate : 192 kb/s
Channel(s) : 2 channels
Channel layout : L R
Sampling rate : 44.1 kHz
Frame rate : 28.711 FPS (1536 SPF)
Compression mode : Lossy
Stream size : 60.6 MiB (10%)
Service kind : Complete Main
Default : Yes
Forced : No

piratbit.org



Скачать Секта через торрент http://img14.lostpic.net/2019/05/23/1304c10129296e6106726c42ae80c148.jpg Скачать фильм Секта через торрент бесплантно в хорошем качестве Описание: Специалисты по выводу людей из культов, депрограммеры, получают заказ освободить из секты «Первозданных» звезду рекламных ... 10 10 7
Торрент: Зарегистрирован [2020-05-26 07:30] · скачан: 106 раз
Статус: √ проверено
Размер: 4.64 GB
Как cкачать? Как скачать Секта через торрент | UTorrent

% Раздел Тема Автор DL S | L
TNT serials [ 6.43 GB ] Секта / Сезон: 1 / Серии: 1-8 из 8 [2019 WEB-DL 720p] bober100 Скачать
1 | 0
TNT serials [ 10.8 GB ] Секта / Сезон: 1 / Серии: 1-8 из 8 [2019 WEB-DL 1080p] bober100 Скачать
1 | 0

28-11-2019 20:33  

Отключить всю рекламу на сайте

    Дорогой пользователь! Огромная просьба, поблагодарите релизера, оцените раздачу и оставьте свои комментарий, если Вы скачали Секта через торрент бесплатно! Внесите свою лепту в развитие PiratBit!
    Комментировать посты могут только пользователи прошедшие не сложную регистрацию
    Показать сообщения:    

    Секта через торрент
    Скачать бесплатно Секта
    Секта скачать торрент
    Секта смотреть онлайн
    Cкачать фильм Секта бесплатно
    Секта скачать торрент в хорошем качестве
    Секта смотреть онлайн бесплатно в хорошем качестве


    Вы не можете начинать темы
    Вы не можете отвечать на сообщения
    Вы не можете редактировать свои сообщения
    Вы не можете удалять свои сообщения
    Вы не можете голосовать в опросах
    Вы не можете прикреплять файлы к сообщениям
    Вы можете скачивать файлы