Доктор Стрэндж

Лицензия

Добыча

Дубляж

Дом дракона

1 сезон

Тор

Дубляж

В эфире

Дубляж

Там, где раки поют

MVO

Властелин колец

1 сезон

Ultimate

pack

Рекомендуем

30

Пиратка

ВАЖНО

ВАЖНО

Ghostwire

Пиратка

jed

RePack

nioh2

RePack

RDR2

RePack

NEED FOR SPEED™ PAYBACK

RePack

скачать торрент

Кинопоиск HD

Острые козырьки 6 сезон

6 сезон

FAR CRY 6

RePack

скачать торрент

Лицензия

скачать торрент

MVO

1

1 сезон

скачать торрент

1 сезон

скачать торрент

Лицензия

  

Чертова дюжина (Убийцы Дня Д) / The Filthy Thirteen (D-Day Assassins) (Эндрю Джонс) [2019 г.,Военный,Реальные события,WEB-DLRip,Профессиональный (многоголосый закадровый)] [HDRezka]

Чертова дюжина через торрент piratbit.org

Размер: 744 MB | Добавлен: 3 года 5 мес. назад | Торрент скачан:110 раз
Смотреть онлайн | Скачать   

06-06-2019 12:30 Чертова дюжина Скачать торрент  

Чертова дюжина (Убийцы Дня Д) / The Filthy Thirteen (D-Day Assassins)

Год выпуска:2019
Страна:Великобритания,
Жанр:Военный,Реальные события
Продолжительность: 01:17:00
Перевод: Профессиональный (многоголосый закадровый) HDRezka
Субтитры: Отсутствуют
Режиссер: Эндрю Джонс
Премьера в мире: 15 апреля 2019
rating
В ролях: Киаран Дейвис, Деннис Фаррин, Вики Гловер, Дерек Нельсон, Марк Гомер, Эрик Хейден, Патрик ОДоннелл, Том Уорд-Томас, Ли Бэйн, Аарон Джеффкот
​ В 1944 году команда американских солдат, известная как "Чёртова дюжина" становится всё большей проблемой для командования. Они не исполняют приказы, редко моются и часто ходят в самоволки. Однако, бунтарям выпадает возможность искупить свои грехи. Они становятся первым подразделением, которое десантируется за немецкой линией фронта во время вторжения в Нормандию. Их цель - передвигаться по вражеской территории и уничтожать каналы поставок и пути отступления. Эта жестокая и захватывающая история основана на реальных событиях.
скриншот  
Тех. данные
Качество: WEB-DLRip
Формат: AVI
Видео кодек: XviD
Аудио кодек: MP3
Видео: MPEG-4 Visual XviD, 720x304 (2,35:1), 1212 Кбит/сек, 25.000 fps, 0.221 bit/pixel
Аудио: MPEG Audio MP3, 128 Кбит/сек, 2 канала, 48,0 КГц

скриншот   скриншот   скриншот   скриншот   скриншот   скриншот   скриншот  

Общее
Полное имя : C:\Кино!\Чертова дюжина (Убийцы Дня Д) The Filthy Thirteen (D-Day Assassins)2019.WEB-DLRip.Portablius.avi
Формат : AVI
Формат/Информация : Audio Video Interleave
Размер файла : 744 Мбайт
Продолжительность : 1 ч. 17 м.
Общий поток : 1350 Кбит/сек
Программа кодирования : VirtualDubMod 1.5.10.3 | www.virtualdub-fr.org || (build 2550/release)
Библиотека кодирования : VirtualDubMod build 2550/release

Видео
Идентификатор : 0
Формат : MPEG-4 Visual
Профиль формата : Advanced Simple@L5
Настройки формата : BVOP1 / Custom Matrix
Параметр BVOP формата : 1
Параметр QPel формата : Нет
Параметр GMC формата : Без точки перехода
Параметр матрицы формата : Выборочная
Идентификатор кодека : XVID
Идентификатор кодека/Подсказка : XviD
Продолжительность : 1 ч. 17 м.
Битрейт : 1212 Кбит/сек
Ширина : 720 пикселей
Высота : 304 пикселя
Соотношение сторон : 2,35:1
Частота кадров : 25,000 кадров/сек
Цветовое пространство : YUV
Субдискретизация насыщенности : 4:2:0
Битовая глубина : 8 бит
Тип развёртки : Прогрессивная
Метод сжатия : С потерями
Бит/(Пиксели*Кадры) : 0.221
Размер потока : 668 Мбайт (90%)
Библиотека кодирования : XviD 73

Аудио
Идентификатор : 1
Формат : MPEG Audio
Версия формата : Version 1
Профиль формата : Layer 3
Идентификатор кодека : 55
Идентификатор кодека/Подсказка : MP3
Продолжительность : 1 ч. 17 м.
Вид битрейта : Постоянный
Битрейт : 128 Кбит/сек
Каналы : 2 канала
Частота : 48,0 КГц
Частота кадров : 41,667 кадра/сек (1152 SPF)
Метод сжатия : С потерями
Размер потока : 70,6 Мбайт (9%)
Выравнивание : Соединение по промежуткам
Продолжительность промежутка : 40 мс. (1,00 видеокадр)
Время предзагрузки промежутка : 504 мс.
Библиотека кодирования : LAME3.99r
Настройки программы : -m s -V 4 -q 2 -lowpass 17 -b 128





Скачать Чертова дюжина через торрент https://pic1.kartinco.top/images/12/r7dex.jpg Скачать, смотреть онлайн Чертова дюжина бесплантно в хорошем качестве В ролях: Киаран Дейвис, Деннис Фаррин, Вики Гловер, Дерек Нельсон, Марк Гомер, Эрик Хейден, Патрик ОДоннелл, Том Уорд-Томас, Ли Бэйн, Аарон ... 8.5 10 6
Торрент: Зарегистрирован [2019-06-06 12:30] · скачан: 110 раз
Статус: T временная
Размер: 744 MB
Как cкачать? Как скачать Чертова дюжина через торрент | UTorrent

% Раздел Тема Автор DL S | L
T Фильмы (WEB-DL 720p, 1080p) [ 2.88 GB ] Чертова дюжина / Убийцы Дня Д / The Filthy Thirteen / D-Day Assassins | HDRezka Studio | 1080p Enigma2010 Скачать
7 | 0
T Фильмы 2019-2020 [DVDrip, WEB-DLRip, HDrip] (DUB, MVO) [ 1.36 GB ] Чертова дюжина / Убийцы Дня Д / The Filthy Thirteen / D-Day Assassins | HDRezka Studio | DLRip Enigma2010 Скачать
2 | 0



Последний раз редактировалось: Sanekzade1989 (2019-06-06 13:02), всего редактировалось 1 раз

28-11-2019 20:33  


Отключить вcю реклaмy на сайте, в т.ч. и в плеере онлайн просмотра!

13-06-2019 14:58 Чертова дюжина Скачать торрент  

ерунда полная



    Дорогой пользователь! Огромная просьба, поблагодарите релизера, оцените раздачу и оставьте свои комментарий, если Вы скачали Чертова дюжина через торрент бесплатно!!
    Комментировать посты могут только пользователи прошедшие не сложную регистрацию
    Показать сообщения:    


    Чертова дюжина через торрент
    Скачать бесплатно Чертова дюжина
    Чертова дюжина скачать торрент
    Чертова дюжина смотреть онлайн
    Cкачать фильм Чертова дюжина бесплатно
    Чертова дюжина скачать торрент в хорошем качестве
    Чертова дюжина смотреть онлайн бесплатно в хорошем качестве
    Вы не можете начинать темы
    Вы не можете отвечать на сообщения
    Вы не можете редактировать свои сообщения
    Вы не можете удалять свои сообщения
    Вы не можете голосовать в опросах
    Вы не можете прикреплять файлы к сообщениям
    Вы можете скачивать файлы
    Чертова дюжина / The Filthy Thirteen [2019 г.,Военный,Реальные события,WEB-DLRip,Профессиональный ] [HDRezka] смотреть онлайн, скачать торрент picoco.icu