Доктор Стрэндж

Лицензия

Добыча

MVO

Дом дракона

1 сезон

Тор

Лицензия

Мэверик

Лицензия

Там, где раки поют

MVO

Властелин колец

1 сезон

Ultimate

pack

Рекомендуем

30

Repack

ВАЖНО

ВАЖНО

Ghostwire

RePack

jed

RePack

nioh2

RePack

RDR2

RePack

NEED FOR SPEED™ PAYBACK

RePack

скачать торрент

Кинопоиск HD

Острые козырьки 6 сезон

6 сезон

FAR CRY 6

RePack

скачать торрент

Лицензия

скачать торрент

MVO

1

1 сезон

скачать торрент

1 сезон

скачать торрент

Лицензия

  

Ромео, мой сосед (Шамиль Махмудбеков) [1963, СССР, мюзикл, мелодрама, комедия, WEB-DLRip-AVC от AVP Studio]

Ромео, мой сосед через торрент piratbit.org

Размер: 745 MB | Добавлен: 3 года 3 мес. назад | Торрент скачан:31 раз
Смотреть онлайн Ромео, мой сосед | Скачать   

07-06-2019 07:26 Ромео, мой сосед Скачать торрент  

Ромео, мой сосед
Страна: СССР
Производство: Азербайджанфильм

Жанр: мюзикл, мелодрама, комедия
Год выпуска: 1963
Продолжительность: 01:06:22

Перевод: Не требуется
Cубтитры: нет
Оригинальная аудиодорожка: русский

Режиссер: Шамиль Махмудбеков

В ролях:
Адиль Искендеров, Ксения Козьмина, Ираклий Хизанишвили, Ариадна Шенгелая, Софа Басирзаде, Ипполит Хвичия, Надежда Самсонова, Сиявуш Аслан (Асланов), Микаэла Дроздовская, С. Векилов, Алигейдар Гасанзаде, Юсиф Юлдус, Ашот Нерсесян...
Об актёрах подробней

Описание:
Экранизация популярной оперетты Р. Гаджиева.

Источник: WEB-DL 576p
Качество видео: WEB-DLRip-AVC
Формат видео: MKV

Видео: 712->828х570 (3:2), 25 fps, H264 ~ 1375 kbps avg, 0.136 bit/pixel
Аудио: 48 kHz, Dolby Digital AC3 2.0, 192 kbps

Раздача от:
Общее
Полное имя : Romeo,moy.sosed.1963.WEB-DLRip-AVC_[New-team]_by_AVP_Studio.mkv
Формат : Matroska
Версия формата : Version 2
Размер файла : 745 Мбайт
Продолжительность : 1 ч. 6 м.
Общий поток : 1569 Кбит/сек
Дата кодирования : UTC 2019-06-06 10:07:13
Программа кодирования : mkvmerge v6.1.0 ('Old Devil') built on Mar 4 2013 09:10:42
Библиотека кодирования : libebml v1.3.0 + libmatroska v1.4.0

Видео
Идентификатор : 1
Формат : AVC
Формат/Информация : Advanced Video Codec
Профиль формата : High@L4.1
Настройки формата : CABAC / 10 Ref Frames
Параметр CABAC формата : Да
Параметр RefFrames формата : 10 кадров
Идентификатор кодека : V_MPEG4/ISO/AVC
Продолжительность : 1 ч. 6 м.
Битрейт : 1375 Кбит/сек
Ширина : 712 пикселей
Высота : 570 пикселей
Соотношение сторон : 3:2
Соотношение сторон в оригинале : 3:2
Режим частоты кадров : Постоянный
Частота кадров : 25,000 кадров/сек
Цветовое пространство : YUV
Субдискретизация насыщенности : 4:2:0
Битовая глубина : 8 бит
Тип развёртки : Прогрессивная
Бит/(Пиксели*Кадры) : 0.136
Размер потока : 639 Мбайт (86%)
Библиотека кодирования : x264 core 157 r2932 303c484
Настройки программы : cabac=1 / ref=10 / deblock=1:-2:-1 / analyse=0x3:0x113 / me=umh / subme=10 / psy=1 / psy_rd=1.00:0.00 / mixed_ref=1 / me_range=32 / chroma_me=1 / trellis=2 / 8x8dct=1 / cqm=0 / deadzone=21,11 / fast_pskip=1 / chroma_qp_offset=-2 / threads=6 / lookahead_threads=1 / sliced_threads=0 / nr=0 / decimate=0 / interlaced=0 / bluray_compat=0 / constrained_intra=0 / bframes=8 / b_pyramid=2 / b_adapt=2 / b_bias=0 / direct=3 / weightb=1 / open_gop=0 / weightp=2 / keyint=250 / keyint_min=25 / scenecut=40 / intra_refresh=0 / rc=2pass / mbtree=0 / bitrate=1375 / ratetol=1.0 / qcomp=0.60 / qpmin=0 / qpmax=69 / qpstep=4 / cplxblur=20.0 / qblur=0.5 / ip_ratio=1.40 / pb_ratio=1.30 / aq=1:1.00
Default : Да
Forced : Нет

Аудио
Идентификатор : 2
Формат : AC-3
Формат/Информация : Audio Coding 3
Коммерческое название : Dolby Digital
Идентификатор кодека : A_AC3
Продолжительность : 1 ч. 6 м.
Вид битрейта : Постоянный
Битрейт : 192 Кбит/сек
Каналы : 2 канала
ChannelLayout : L R
Частота : 48,0 КГц
Частота кадров : 31,250 кадров/сек (1536 SPF)
Битовая глубина : 16 бит
Метод сжатия : С потерями
Размер потока : 91,1 Мбайт (12%)
Default : Да
Forced : Нет



Скачать Ромео, мой сосед через торрент http://a.radikal.ru/a10/2001/e5/86f218771148.png Скачать, смотреть онлайн Ромео, мой сосед бесплантно в хорошем качестве Описание:Экранизация популярной оперетты Р. Гаджиева. Источник: WEB-DL ... 5 10 1
Info! Золотая раздача, скачанное не засчитывается.
Торрент: Зарегистрирован [2019-06-07 07:26] · скачан: 31 раз
Статус: √ проверено
Размер: 745 MB
Как cкачать? Как скачать Ромео, мой сосед через торрент | UTorrent

% Раздел Тема Автор DL S | L
Кино СССР [ 745 MB ] Ромео, мой сосед | | DLRip от AVP Studio AVP Studio Скачать
1 | 0

28-11-2019 20:33  

Отключить вcю реклaмy на сайте

    Дорогой пользователь! Огромная просьба, поблагодарите релизера, оцените раздачу и оставьте свои комментарий, если Вы скачали Ромео, мой сосед через торрент бесплатно!!
    Комментировать посты могут только пользователи прошедшие не сложную регистрацию
    Показать сообщения:    


    Ромео, мой сосед через торрент
    Скачать бесплатно Ромео, мой сосед
    Ромео, мой сосед скачать торрент
    Ромео, мой сосед смотреть онлайн
    Cкачать фильм Ромео, мой сосед бесплатно
    Ромео, мой сосед скачать торрент в хорошем качестве
    Ромео, мой сосед смотреть онлайн бесплатно в хорошем качестве
    Вы не можете начинать темы
    Вы не можете отвечать на сообщения
    Вы не можете редактировать свои сообщения
    Вы не можете удалять свои сообщения
    Вы не можете голосовать в опросах
    Вы не можете прикреплять файлы к сообщениям
    Вы можете скачивать файлы