Лицензия

MVO

1

1 сезон

Лицензия

Лицензия

13

MVO

1 сезон

Deluxe Edition

pack

Рекомендуем

30

Repack

ВАЖНО

ВАЖНО

Ghostwire

RePack

jed

RePack

fifa19

RePack

RDR2

RePack

NEED FOR SPEED™ PAYBACK

RePack

Кинопоиск HD

 Острые козырьки 6 сезон

6 сезон

FAR CRY 6

RePack

Лицензия

MVO

1

1 сезон

1 сезон

Лицензия

  

Перекресток (Шакен Айманов) [1963, СССР, драма, SATRip от AVP Studio]

Перекресток через торрент piratbit.org

Качают: 1 [ 0 KB/s ]
Размер: 1.09 GB | Добавлен: 3 года 3 мес. назад | Торрент скачан:19 раз
Смотреть онлайн Перекресток | Скачать   

08-06-2019 07:37 Перекресток Скачать торрент  

Перекресток
Страна: СССР
Производство: Казахфильм

Жанр: драма
Год выпуска: 1963
Продолжительность: 01:24:38

Перевод: Не требуется
Cубтитры: нет
Оригинальная аудиодорожка: русский

Режиссер: Шакен Айманов

В ролях:
Фарида Шарипова, Асанали Ашимов, Леонид Чубаров, Клавдия Хабарова, Владимир Сошальский, Л. Тастанова, Г. Эльвеин, Шахан Мусин, Евгений Диордиев, Петр Морозов, Шолпан Джандарбекова, Рахия Койчубаева, Юрий Померанцев, Сайфулла Тельгараев...
Об актёрах подробней

Описание:
Фильм рассказывает о враче «Скорой помощи» Галии Исмаиловой, её тревогах и радостях.

Исходник: DVB
Качество видео: SATRip
Формат видео: AVI

Видео: 704x464 (3:2), 29,970 кадров/сек, XviD ~ 1640 kbps avg, 0.168 bit/pixel
Аудио: 48 kHz, Dolby Digital AC3 2.0, 192 kbps

Раздача от:
Общее
Полное имя : Perekrestok.1963.SATRip_[New-team]_by_AVP_Studio.avi
Формат : AVI
Формат/Информация : Audio Video Interleave
Размер файла : 1,09 Гбайт
Продолжительность : 1 ч. 24 м.
Общий поток : 1844 Кбит/сек
Программа кодирования : VirtualDubMod 1.5.10.3 | www.virtualdub-fr.org || (build 2550/release)
Библиотека кодирования : VirtualDubMod build 2550/release

Видео
Идентификатор : 0
Формат : MPEG-4 Visual
Профиль формата : Advanced Simple@L5
Настройки формата : BVOP1 / Custom Matrix
Параметр BVOP формата : 1
Параметр QPel формата : Нет
Параметр GMC формата : Без точки перехода
Параметр матрицы формата : Выборочная
Идентификатор кодека : XVID
Идентификатор кодека/Подсказка : XviD
Продолжительность : 1 ч. 24 м.
Битрейт : 1640 Кбит/сек
Ширина : 704 пикселя
Высота : 464 пикселя
Соотношение сторон : 3:2
Частота кадров : 29,970 (30000/1001) кадров/сек
Цветовое пространство : YUV
Субдискретизация насыщенности : 4:2:0
Битовая глубина : 8 бит
Тип развёртки : Прогрессивная
Метод сжатия : С потерями
Бит/(Пиксели*Кадры) : 0.168
Размер потока : 993 Мбайт (89%)
Библиотека кодирования : XviD 73

Аудио
Идентификатор : 1
Формат : AC-3
Формат/Информация : Audio Coding 3
Коммерческое название : Dolby Digital
Идентификатор кодека : 2000
Продолжительность : 1 ч. 24 м.
Вид битрейта : Постоянный
Битрейт : 192 Кбит/сек
Каналы : 2 канала
ChannelLayout : L R
Частота : 48,0 КГц
Частота кадров : 31,250 кадров/сек (1536 SPF)
Битовая глубина : 16 бит
Метод сжатия : С потерями
Размер потока : 116 Мбайт (10%)
Выравнивание : Разделение по промежуткам
Продолжительность промежутка : 33 мс. (1,00 видеокадр)
Время предзагрузки промежутка : 500 мс



Скачать Перекресток через торрент http://d.radikal.ru/d41/1912/f7/d8960b2ffbbd.png Скачать, смотреть онлайн Перекресток бесплантно в хорошем качестве Описание:Фильм рассказывает о враче «Скорой помощи» Галии Исмаиловой, её тревогах и радостях. Исходник: ... 5 10 1
Торрент: Зарегистрирован [2019-06-08 07:37] · скачан: 19 раз
Статус: √ проверено
Размер: 1.09 GB
Как cкачать? Как скачать Перекресток через торрент | UTorrent

% Раздел Тема Автор DL S | L
Кино СССР [ 1.09 GB ] Перекресток | | SATRip-AVC от AVP Studio AVP Studio Скачать
1 | 2

28-11-2019 20:33  

Отключить вcю реклaмy на сайте

    Дорогой пользователь! Огромная просьба, поблагодарите релизера, оцените раздачу и оставьте свои комментарий, если Вы скачали Перекресток через торрент бесплатно!!
    Комментировать посты могут только пользователи прошедшие не сложную регистрацию
    Показать сообщения:    


    Перекресток через торрент
    Скачать бесплатно Перекресток
    Перекресток скачать торрент
    Перекресток смотреть онлайн
    Cкачать фильм Перекресток бесплатно
    Перекресток скачать торрент в хорошем качестве
    Перекресток смотреть онлайн бесплатно в хорошем качестве
    Вы не можете начинать темы
    Вы не можете отвечать на сообщения
    Вы не можете редактировать свои сообщения
    Вы не можете удалять свои сообщения
    Вы не можете голосовать в опросах
    Вы не можете прикреплять файлы к сообщениям
    Вы можете скачивать файлы