Достать ножи: Стеклянная луковица

MVO

Добыча

Дубляж

Уэнсдэй

1 сезон

Тор

Дубляж

13 клиническая

1 сезон

Жестокая ночь

MVO

Одни из нас

1 сезон

Deluxe

pack

Рекомендуем

30

Пиратка

ВАЖНО

ВАЖНО

Ghostwire

Пиратка

jed

RePack

nioh2

RePack

RDR2

RePack

NEED FOR SPEED™ PAYBACK

RePack

скачать торрент

Кинопоиск HD

Острые козырьки 6 сезон

6 сезон

FAR CRY 6

RePack

скачать торрент

Лицензия

скачать торрент

MVO

1

1 сезон

скачать торрент

1 сезон

скачать торрент

Лицензия

  

13 часов: Тайные солдаты Бенгази / 13 Hours (Майкл Бэй) [2015, боевик, триллер, драма, военный, UHD BDRip 2160p] Дубляж [Лицензия] + AVO [Гаврилов]

13 часов: Тайные солдаты Бенгази через торрент piratbit.org

Размер: 21.09 GB | Добавлен: 3 года 8 мес. назад | Торрент скачан:40 раз
Смотреть онлайн | Скачать | Поддержите нас   

09-06-2019 02:08 13 часов: Тайные солдаты Бенгази Скачать торрент  

13 часов: Тайные солдаты Бенгази / 13 Hours Год выпуска: 2015
Страна: Мальта, США
Жанр: боевик, триллер, драма, военный
Продолжительность: 02:24:27
Перевод: Дублированный, авторский
Субтитры: Русские (форсированные, полные), английские
Режиссер: Майкл Бэй
В ролях:

Джон Красински (Jack Silva), Джеймс Бэдж Дэйл (Tyrone «Rone» Woods), Пабло Шрайбер (Kris «Tanto» Paronto), Дэвид Денман (Dave «Boon» Benton), Доминик Фумуса (John «Tig» Tiegen), Макс Мартини (Mark «Oz» Geist), Алексия Бальер (Sona Jillani), Дэвид Костабайл (Bob), Пейман Моаади (Amahl), Мэтт Летчер (Ambassador Chris Stevens), Тоби Стивенс (Glen «Bub» Doherty), Деметриус Гросс (DS Dave Ubben)
Описание:
2012 год. Бенгази, Ливия. Группа террористов решает «отпраздновать» события 11 сентября нападением на американское посольство. Шестерке бойцов из элитного спецотряда приказано вмешаться только в крайнем случае. Но когда под угрозой десятки жизней, долг и совесть берут верх над субординацией. И мужественные солдаты без колебаний вступают в бой с яростной группировкой боевиков. Бой, который для всех шестерых, скорее всего, станет последним.
Рейтинг:

MPAA: R - Лицам до 17 лет обязательно присутствие взрослого
Качество: UHD BDRip 2160p
Формат: MKV
Видео: HEVC HDR, 19.2 Мбит/с, 3840x1600, 23.976 Кадр/с, 10 bit
Аудио: 48 kHz, AC3, 5.1, 640 Kbps | Лицензия | RUS
Аудио: 48 kHz, AC3, 5.1, 384 Kbps | Гаврилов | RUS
Аудио: 48 kHz, AC3, 5.1, 640 Kbps | Оригинал | ENG
Навигация по главам: есть

Общее
Уникальный идентификатор : 175896925914343823794446658607204197070 (0x845484033CF573A29EF59C2729CEE2CE)
Полное имя : D:\Мои раздачи\Передел\13.Hours.The.Secret.Soldiers.Of.Benghazi.2016.2160p.HDR.BDRip.x265.10bit.Master5.mkv
Формат : Matroska
Версия формата : Version 4 / Version 2
Размер файла : 21,1 Гбайт
Продолжительность : 2 ч. 24 м.
Общий поток : 20,9 Мбит/сек
Название фильма : 13.Hours.The.Secret.Soldiers.Of.Benghazi.2016.2160p.HDR.BDRip.x265.10bit.Master5
Дата кодирования : UTC 2019-06-07 10:05:21
Программа кодирования : mkvmerge v7.9.0 ('Birds') 64bit
Библиотека кодирования : libebml v1.3.1 + libmatroska v1.4.2
Обложка : Yes
Attachments : small_cover_land.jpg / cover.jpg / cover_land.jpg / small_cover.jpg

Видео
Идентификатор : 1
Формат : HEVC
Формат/Информация : High Efficiency Video Coding
Коммерческое название : HDR10
Профиль формата : Main 10@L5.1@High
Идентификатор кодека : V_MPEGH/ISO/HEVC
Продолжительность : 2 ч. 24 м.
Битрейт : 19,2 Мбит/сек
Ширина : 3840 пикселей
Высота : 1600 пикселей
Соотношение сторон : 2,40:1
Режим частоты кадров : Постоянный
Частота кадров : 23,976 (24000/1001) кадра/сек
Цветовое пространство : YUV
Субдискретизация насыщенности : 4:2:0 (Type 2)
Битовая глубина : 10 бит
Бит/(Пиксели*Кадры) : 0.131
Размер потока : 19,4 Гбайт (92%)
Заголовок : 13.Hours.The.Secret.Soldiers.Of.Benghazi.2016.2160p.HDR.BDRip.x265.10bit.Master5
Библиотека кодирования : x265 3.0_Au+10-74a8672ea4f7:[Windows][GCC 8.2.1][64 bit] 10bit
Настройки программы : cpuid=1111039 / frame-threads=16 / numa-pools=24,24,24,24 / wpp / no-pmode / no-pme / no-psnr / no-ssim / log-level=2 / input-csp=1 / input-res=3840x1600 / interlace=0 / total-frames=0 / level-idc=51 / high-tier=1 / uhd-bd=0 / ref=3 / no-allow-non-conformance / repeat-headers / annexb / aud / hrd / info / hash=0 / no-temporal-layers / no-open-gop / min-keyint=1 / keyint=24 / gop-lookahead=0 / bframes=4 / b-adapt=2 / b-pyramid / bframe-bias=0 / rc-lookahead=25 / lookahead-slices=4 / scenecut=40 / radl=0 / no-splice / no-intra-refresh / ctu=64 / min-cu-size=8 / no-rect / no-amp / max-tu-size=32 / tu-inter-depth=1 / tu-intra-depth=1 / limit-tu=0 / rdoq-level=0 / dynamic-rd=0.00 / no-ssim-rd / signhide / no-tskip / nr-intra=0 / nr-inter=0 / no-constrained-intra / strong-intra-smoothing / max-merge=2 / limit-refs=3 / no-limit-modes / me=1 / subme=2 / merange=57 / temporal-mvp / weightp / no-weightb / no-analyze-src-pics / deblock=0:0 / no-sao / no-sao-non-deblock / rd=3 / no-early-skip / rskip / no-fast-intra / no-tskip-fast / no-cu-lossless / no-b-intra / no-splitrd-skip / rdpenalty=0 / psy-rd=2.00 / psy-rdoq=0.00 / no-rd-refine / no-lossless / cbqpoffs=0 / crqpoffs=0 / rc=crf / crf=16.0 / qcomp=0.60 / qpstep=4 / stats-write=0 / stats-read=0 / vbv-maxrate=160000 / vbv-bufsize=160000 / vbv-init=0.9 / crf-max=0.0 / crf-min=0.0 / ipratio=1.40 / pbratio=1.30 / aq-mode=1 / aq-strength=1.00 / cutree / zone-count=0 / no-strict-cbr / qg-size=32 / no-rc-grain / qpmax=69 / qpmin=0 / no-const-vbv / sar=1 / overscan=0 / videoformat=5 / range=0 / colorprim=9 / transfer=16 / colormatrix=9 / chromaloc=1 / chromaloc-top=2 / chromaloc-bottom=2 / display-window=0 / master-display=G(13250,34500)B(7500,3000)R(34000,16000)WP(15635,16450)L(10000000,01) / max-cll=0,0 / min-luma=0 / max-luma=1023 / log2-max-poc-lsb=8 / vui-timing-info / vui-hrd-info / slices=1 / opt-qp-pps / opt-ref-list-length-pps / no-multi-pass-opt-rps / scenecut-bias=0.05 / no-opt-cu-delta-qp / no-aq-motion / hdr / hdr-opt / no-dhdr10-opt / no-idr-recovery-sei / analysis-reuse-level=5 / scale-factor=0 / refine-intra=0 / refine-inter=0 / refine-mv=0 / refine-ctu-distortion=0 / no-limit-sao / ctu-info=0 / no-lowpass-dct / refine-analysis-type=0 / copy-pic=1 / max-ausize-factor=1.0 / no-dynamic-refine / no-single-sei / no-hevc-aq / no-svt / qp-adaptation-range=1.00
Default : Да
Forced : Нет
Цветовой диапазон : Limited
Основные цвета : BT.2020
Характеристики трансфера : PQ
Коэффициенты матрицы : BT.2020 non-constant
MasteringDisplay_ColorPrimaries : Display P3
MasteringDisplay_Luminance : min: 0.0001 cd/m2, max: 1000 cd/m2

Аудио #1
Идентификатор : 2
Формат : AC-3
Формат/Информация : Audio Coding 3
Идентификатор кодека : A_AC3
Продолжительность : 2 ч. 24 м.
Вид битрейта : Постоянный
Битрейт : 640 Кбит/сек
Каналы : 6 каналов
Расположение каналов : Front: L C R, Side: L R, LFE
Частота : 48,0 КГц
Частота кадров : 31,250 кадров/сек (1536 SPF)
Битовая глубина : 16 бит
Метод сжатия : С потерями
Размер потока : 661 Мбайт (3%)
Заголовок : Дубляж License
Язык : Russian
ServiceKind/String : Complete Main
Default : Да
Forced : Да

Аудио #2
Идентификатор : 3
Формат : AC-3
Формат/Информация : Audio Coding 3
Идентификатор кодека : A_AC3
Продолжительность : 2 ч. 24 м.
Вид битрейта : Постоянный
Битрейт : 384 Кбит/сек
Каналы : 6 каналов
Расположение каналов : Front: L C R, Side: L R, LFE
Частота : 48,0 КГц
Частота кадров : 31,250 кадров/сек (1536 SPF)
Битовая глубина : 16 бит
Метод сжатия : С потерями
Размер потока : 397 Мбайт (2%)
Заголовок : AVO Gavrilov
Язык : Russian
ServiceKind/String : Complete Main
Default : Нет
Forced : Нет

Аудио #3
Идентификатор : 4
Формат : AC-3
Формат/Информация : Audio Coding 3
Идентификатор кодека : A_AC3
Продолжительность : 2 ч. 24 м.
Вид битрейта : Постоянный
Битрейт : 640 Кбит/сек
Каналы : 6 каналов
Расположение каналов : Front: L C R, Side: L R, LFE
Частота : 48,0 КГц
Частота кадров : 31,250 кадров/сек (1536 SPF)
Битовая глубина : 16 бит
Метод сжатия : С потерями
Размер потока : 661 Мбайт (3%)
Язык : English
ServiceKind/String : Complete Main
Default : Нет
Forced : Нет

Текст #1
Идентификатор : 5
Формат : UTF-8
Идентификатор кодека : S_TEXT/UTF8
Идентификатор кодека/Информация : UTF-8 Plain Text
Продолжительность : 2 ч. 16 м.
Битрейт : 4 бит/сек
ElementCount : 59
Размер потока : 4,24 Кбайт (0%)
Заголовок : Forced
Язык : Russian
Default : Да
Forced : Да

Текст #2
Идентификатор : 6
Формат : UTF-8
Идентификатор кодека : S_TEXT/UTF8
Идентификатор кодека/Информация : UTF-8 Plain Text
Продолжительность : 2 ч. 23 м.
Битрейт : 94 бит/сек
ElementCount : 1855
Размер потока : 99,3 Кбайт (0%)
Заголовок : Full
Язык : Russian
Default : Нет
Forced : Нет

Текст #3
Идентификатор : 7
Формат : UTF-8
Идентификатор кодека : S_TEXT/UTF8
Идентификатор кодека/Информация : UTF-8 Plain Text
Продолжительность : 2 ч. 14 м.
Битрейт : 67 бит/сек
ElementCount : 2095
Размер потока : 66,5 Кбайт (0%)
Заголовок : Full
Язык : English
Default : Нет
Forced : Нет

Текст #4
Идентификатор : 8
Формат : UTF-8
Идентификатор кодека : S_TEXT/UTF8
Идентификатор кодека/Информация : UTF-8 Plain Text
Продолжительность : 2 ч. 15 м.
Битрейт : 71 бит/сек
ElementCount : 2252
Размер потока : 70,8 Кбайт (0%)
Заголовок : SDH
Язык : English
Default : Нет
Forced : Нет

Меню
00:00:00.000 : en:Chapter 01
00:04:46.536 : en:Chapter 02
00:09:00.498 : en:Chapter 03
00:15:30.721 : en:Chapter 04
00:21:11.395 : en:Chapter 05
00:26:47.939 : en:Chapter 06
00:31:21.921 : en:Chapter 07
00:34:19.140 : en:Chapter 08
00:39:35.289 : en:Chapter 09
00:47:11.703 : en:Chapter 10
00:53:58.193 : en:Chapter 11
01:02:26.784 : en:Chapter 12
01:10:02.489 : en:Chapter 13
01:23:01.643 : en:Chapter 14
01:27:10.266 : en:Chapter 15
01:34:49.850 : en:Chapter 16
01:42:35.524 : en:Chapter 17
01:48:07.314 : en:Chapter 18
01:53:46.444 : en:Chapter 19
02:00:22.048 : en:Chapter 20
02:07:18.631 : en:Chapter 21
02:18:24.337 : en:Chapter 22



Скачать 13 часов: Тайные солдаты Бенгази через торрент https://a.radikal.ru/a23/1906/8c/ffc3d6aa7472.png Скачать, смотреть онлайн 13 часов: Тайные солдаты Бенгази бесплантно в хорошем качестве Описание: 2012 год. Бенгази, Ливия. Группа террористов решает «отпраздновать» события 11 сентября нападением на американское посольство. ... 10 10 1
Торрент: Зарегистрирован [2019-06-09 02:08] · скачан: 40 раз
Статус: √ проверено
Размер: 21.09 GB
Как cкачать? Как скачать 13 часов: Тайные солдаты Бенгази через торрент | UTorrent

% Раздел Тема Автор DL S | L
Фильмы (HD 720p, 1080p) (48-60 fps) [ 4.43 GB ] 13 часов: Тайные солдаты Бенгази / 13 Hours: The Secret Soldiers of Benghazi | Лицензия | 720p / 60 FPS Лицензия slaventi-69 Скачать
2 | 0
Ultra HD (UHD: 2K, 4K, 8K) [ 71.72 GB ] 13 часов: Тайные солдаты Бенгази / 13 Hours: The Secret Soldiers of Benghazi | Лицензия | 2160p bober100 Скачать
1 | 0
Фильмы [HD 720p, 1080p] (Хороший звук DUB, MVO) [ 7.95 GB ] 13 часов: Тайные солдаты Бенгази / 13 Hours | Дубляж | 720p smaster Скачать
1 | 0
Фильмы с авторской озвучкой [ 2.18 GB ] 13 часов: Тайные солдаты Бенгази / 13 Hours: The Secret Soldiers of Benghazi | AVO | BDRip killermax2013 Скачать
1 | 0
Фильмы (DVD фильмы) [ 7.35 GB ] 13 часов: Тайные солдаты Бенгази / 13 Hours | | 13 часов: Тайные солдаты Бенгази / 13 Hours (Майкл Бэй / Michael Bay voovaz Скачать
1 | 0
Фильмы (Blu-ray, BD-Remux, HDDVD) [ 40.38 GB ] 13 часов: Тайные солдаты Бенгази / 13 Hours: The Secret Soldiers of Benghazi | Лицензия | Лицензия Russian Mafia Скачать
1 | 0

28-11-2019 20:33  


Отключить вcю реклaмy на сайте, в т.ч. и в плеере онлайн просмотра!

    Дорогой пользователь! Огромная просьба, поблагодарите релизера, оцените раздачу и оставьте свои комментарий, если Вы скачали 13 часов: Тайные солдаты Бенгази через торрент бесплатно!!
    Комментировать посты могут только пользователи прошедшие не сложную регистрацию
    Показать сообщения:    


    13 часов: Тайные солдаты Бенгази через торрент
    Скачать бесплатно 13 часов: Тайные солдаты Бенгази
    13 часов: Тайные солдаты Бенгази скачать торрент
    13 часов: Тайные солдаты Бенгази смотреть онлайн
    Cкачать фильм 13 часов: Тайные солдаты Бенгази бесплатно
    13 часов: Тайные солдаты Бенгази скачать торрент в хорошем качестве
    13 часов: Тайные солдаты Бенгази смотреть онлайн бесплатно в хорошем качестве
    Вы не можете начинать темы
    Вы не можете отвечать на сообщения
    Вы не можете редактировать свои сообщения
    Вы не можете удалять свои сообщения
    Вы не можете голосовать в опросах
    Вы не можете прикреплять файлы к сообщениям
    Вы можете скачивать файлы
    13 часов: Тайные солдаты Бенгази / 13 Hours [2015, боевик, триллер, драма, военный, UHD BDRip 2160p] Дубляж [Лицензия] + AVO [Гаврилов] смотреть онлайн, скачать торрент picoco.icu