2 сезон

iTunes

WEBRip

1

2 сезон

iTunes

1 сезон

1 сезон

RePack

30

Новинка

ВАЖНО

ИГРА 18+

pack

RePack

MK11
pack

Легкие деньги

RePack

jed

RePack

fifa19

RePack

RDR2

RePack

NEED FOR SPEED™ PAYBACK

4 сезон

9 сезон

Бесстыжие 9 сезон

Все сериалы

все сериалы на PB.wtf

RePack

FAR CRY 5

Anonymous, доброй ночи, мы не успеваем собрать деньги на оплату серверов за февраль, помогите нам пожалуйста в это трудное время. В качестве благодарности мы отключим Вам всю рекламу на сайте (укажите свой ник в строку Ваше имя)!

×
  
Magnet ссылка

В плену у оборотня / В полонi у перевертня (Серии: 1-4 из 4) (Виталий Ващенко) [2019, боевик, SiteRip 1080p] piratbit.org

В плену у оборотня через торрент piratbit.org

Размер: 2.55 GB | Добавлен: 1 год 8 мес. назад | Торрент скачан:29 раз
Скачать  

09-06-2019 04:58 В плену у оборотня Скачать торрент  

В плену у оборотня | В полонi у перевертня

Производство: Украина
Год выпуска: 2019
Жанр: боевик
Продолжительность: 4х~ 00:42:00

Язык: Украинский
Режиссер: Виталий Ващенко

В ролях: Дмитрий Сова, Анна Кошмал, Константин Войтенко, Евгений Капорин, Анатолий Хостикоев, Наталья Сумская, Татьяна Зиновенко, Юрий Горбунов, Елена Стефанская, Марк Дробот, Владимир Заднепровский
Описание: Главные герои – три друга, которые должны пешком перенести через румынскую границу секретный груз. Ставки велики, поскольку семья одного из героев находится у заложников. И, конечно, путь через границу не легкий. За грузом ведется ожесточенная охота, но остается неизвестным, что же в посылке? Справятся ли с натиском врагов герои фильма?




Качество видео: SiteRip 1080p
Формат: MP4
Видео: 1920x1080 at 23.976 fps, MPEG-4 AVC, ~2100 kbps avg
Аудио : AAC, 48 kHz, 2 ch, 128 kbps |UKR
Complete name : E:\V_Poloni_U_Perevertnya\01. seriya.mp4 
Format : MPEG-4
Format profile : Base Media
Codec ID : isom (isom/iso2/avc1/mp41)
File size : 672 MiB
Duration : 42 min 4 s
Overall bit rate : 2 234 kb/s
Writing application : Lavf57.2.100

Video
ID : 1
Format : AVC
Format/Info : Advanced Video Codec
Format profile : High@L4
Format settings : CABAC / 3 Ref Frames
Format settings, CABAC : Yes
Format settings, RefFrames : 3 frames
Codec ID : avc1
Codec ID/Info : Advanced Video Coding
Duration : 42 min 4 s
Bit rate : 2 100 kb/s
Width : 1 920 pixels
Height : 1 080 pixels
Display aspect ratio : 16:9
Frame rate mode : Constant
Frame rate : 25.000 FPS
Color space : YUV
Chroma subsampling : 4:2:0
Bit depth : 8 bits
Scan type : Progressive
Bits/(Pixel*Frame) : 0.041
Stream size : 632 MiB (94%)
Writing library : x264 core 155 r2901 7d0ff22
Color range : Limited
Color primaries : BT.709
Transfer characteristics : BT.709
Matrix coefficients : BT.709

Audio
ID : 2
Format : AAC
Format/Info : Advanced Audio Codec
Format profile : LC
Codec ID : mp4a-40-2
Duration : 42 min 4 s
Bit rate mode : Constant
Bit rate : 128 kb/s
Channel(s) : 2 channels
Channel positions : Front: L R
Sampling rate : 44.1 kHz
Frame rate : 43.066 FPS (1024 SPF)
Compression mode : Lossy
Stream size : 38.5 MiB (6%)
Default : Yes
Alternate group : 1

скриншот  скриншот  скриншот  скриншот  
piratbit.org



Скачать В плену у оборотня через торрент https://i106.fastpic.ru/big/2019/0609/7f/129c37fbd100ba0ee4c3b5b54182867f.png Скачать фильм В плену у оборотня через торрент бесплантно в хорошем качестве Описание: Главные герои – три друга, которые должны пешком перенести через румынскую границу секретный груз. Ставки велики, поскольку семья ... 8.2 10 5
Торрент: Зарегистрирован [2019-06-09 04:58] · скачан: 29 раз
Статус: √ проверено
Размер: 2.55 GB
Как cкачать? Как скачать В плену у оборотня через торрент | UTorrent



Последний раз редактировалось: killermax2013 (2019-06-09 05:47), всего редактировалось 1 раз

28-11-2019 20:33  

Отключить всю рекламу на сайте

    Дорогой пользователь! Огромная просьба, поблагодарите релизера, оцените раздачу и оставьте свои комментарий, если Вы скачали В плену у оборотня через торрент бесплатно! Внесите свою лепту в развитие PiratBit!
    Комментировать посты могут только пользователи прошедшие не сложную регистрацию
    Показать сообщения:    

    В плену у оборотня через торрент
    Скачать бесплатно В плену у оборотня
    В плену у оборотня скачать торрент
    В плену у оборотня смотреть онлайн
    Cкачать фильм В плену у оборотня бесплатно
    В плену у оборотня скачать торрент в хорошем качестве
    В плену у оборотня смотреть онлайн бесплатно в хорошем качестве


    Вы не можете начинать темы
    Вы не можете отвечать на сообщения
    Вы не можете редактировать свои сообщения
    Вы не можете удалять свои сообщения
    Вы не можете голосовать в опросах
    Вы не можете прикреплять файлы к сообщениям
    Вы можете скачивать файлы