Достать ножи: Стеклянная луковица

MVO

Добыча

Дубляж

Уэнсдэй

1 сезон

Тор

Дубляж

13 клиническая

1 сезон

Жестокая ночь

MVO

Одни из нас

1 сезон

Deluxe

pack

Рекомендуем

30

Пиратка

ВАЖНО

ВАЖНО

Ghostwire

Пиратка

jed

RePack

nioh2

RePack

RDR2

RePack

NEED FOR SPEED™ PAYBACK

RePack

скачать торрент

Кинопоиск HD

Острые козырьки 6 сезон

6 сезон

FAR CRY 6

RePack

скачать торрент

Лицензия

скачать торрент

MVO

1

1 сезон

скачать торрент

1 сезон

скачать торрент

Лицензия

  

Люди Икс: Дни минувшего будущего / X-Men: Days of Future Past (Брайан Сингер) [2014, фантастика, фэнтези, боевик, приключения, UHD BDRemux 2160p] Дубляж + 2xAVO [Tеатральная версия]

Люди Икс: Дни минувшего будущего через торрент piratbit.org

Размер: 56.73 GB | Добавлен: 3 года 7 мес. назад | Торрент скачан:27 раз
Смотреть онлайн | Скачать | Поддержите нас   

10-06-2019 02:10 Люди Икс: Дни минувшего будущего Скачать торрент  

Люди Икс: Дни минувшего будущего / X-Men: Days of Future Past««His past. Our future»»

Год выпуска: 2014
Страна: США
Жанр: фантастика, фэнтези, боевик, приключения
Продолжительность: 02:11:35
Перевод: Дублированный, авторский
Субтитры: Русские (Форсированные, полные), Английские (Форсированные, полные, SDH)
Режиссер: Брайан Сингер
В ролях:

Хью Джекман (Logan / Wolverine), Джеймс Макэвой (Charles Xavier), Майкл Фассбендер (Erik Lehnsherr), Дженнифер Лоуренс (Raven / Mystique), Николас Холт (Hank / Beast), Холли Берри (Storm), Эллен Пейдж (Kitty Pryde), Питер Динклэйдж (Dr. Bolivar Trask), Иэн Маккеллен (Magneto), Патрик Стюарт (Professor X), Джош Хелман (Maj. Bill Stryker), Эван Питерс (Peter / Quicksilver)
Описание:
В недалёком будущем мутанты близки к истреблению роботами-охотниками на мутантов Стражами. Единственная надежда для мутантов выжить - предотвратить череду роковых событий, приведших к появлению Стражей. С помощью своих способностей, Китти Прайд перемещает сознание Росомахи в его молодое тело в 1973 год. В прошлом всё оказывается не так радужно: молодой Профессор Икс окончательно разочарован в своих идеях, Магнето содержится в тюрьме глубоко под землёй, а человечество не знает как реагировать на широкое появление мутантов...
Рейтинг:

MPAA: PG-13 - Детям до 13 лет просмотр не желателен
Качество: UHD BDRemux 2160p | Tеатральная версия
Формат: MKV
Видео: HEVC HDR, 44.9 Мбит/с, 3840x2160, 23.976 Кадр/с, 10 бит
Аудио №1: Russian / DTS / 5.1 / 48 kHz / 768 kbps Дубляж
Аудио №2: Russian / DTS-HD Master Audio / 7.1 / 48 kHz / 5220 kbps Ю. Живов
Аудио №3: Russian / DTS-HD Master Audio / 7.1 / 48 kHz / 5378 kbps В. Белов
Аудио №4: English / DTS-HD Master Audio / 7.1 / 48 kHz / 5490 kbps
Навигация по главам: есть

General
Unique ID : 259324098844203457894862811476834916365 (0xC3180135C1FE1CC4AB1E12D486B8180D)
Complete name : X:\Releases\X-Men.Days.of.Future.Past.2014.BDRemux.HEVC.HDR.2160p.mkv
Format : Matroska
Format version : Version 4
File size : 56.7 GiB
Duration : 2 h 11 min
Overall bit rate mode : Variable
Overall bit rate : 61.7 Mb/s
Encoded date : UTC 2019-06-08 06:10:45
Writing application : mkvmerge v34.0.0 ('Sight and Seen') 64-bit
Writing library : libebml v1.3.7 + libmatroska v1.5.0
Attachments : poster.jpg

Video
ID : 1
Format : HEVC
Format/Info : High Efficiency Video Coding
Format profile : Main 10@L5.1@High
HDR format : SMPTE ST 2086, HDR10 compatible
Codec ID : V_MPEGH/ISO/HEVC
Duration : 2 h 11 min
Bit rate : 44.9 Mb/s
Width : 3 840 pixels
Height : 2 160 pixels
Display aspect ratio : 16:9
Frame rate mode : Constant
Frame rate : 23.976 (24000/1001) FPS
Color space : YUV
Chroma subsampling : 4:2:0 (Type 2)
Bit depth : 10 bits
Bits/(Pixel*Frame) : 0.226
Stream size : 41.2 GiB (73%)
Writing library : ATEME Titan KFE 3.7.3 (4.7.3.1001)
Default : Yes
Forced : No
Color range : Limited
Color primaries : BT.2020
Transfer characteristics : PQ
Matrix coefficients : BT.2020 non-constant
Mastering display color pri : Display P3
Mastering display luminance : min: 0.0000 cd/m2, max: 1100 cd/m2

Audio #1
ID : 2
Format : DTS
Format/Info : Digital Theater Systems
Codec ID : A_DTS
Duration : 2 h 11 min
Bit rate mode : Constant
Bit rate : 768 kb/s
Channel(s) : 6 channels
Channel layout : C L R Ls Rs LFE
Sampling rate : 48.0 kHz
Frame rate : 93.750 FPS (512 SPF)
Bit depth : 24 bits
Compression mode : Lossy
Stream size : 723 MiB (1%)
Title : Дубляж
Language : Russian
Default : Yes
Forced : No

Audio #2
ID : 3
Format : DTS ES XLL
Format/Info : Digital Theater Systems
Commercial name : DTS-HD Master Audio
Codec ID : A_DTS
Duration : 2 h 11 min
Bit rate mode : Variable
Bit rate : 5 220 kb/s
Channel(s) : 8 channels
Channel layout : C L R Ls Rs LFE Lb Rb
Sampling rate : 48.0 kHz
Frame rate : 93.750 FPS (512 SPF)
Bit depth : 24 bits
Compression mode : Lossless
Stream size : 4.80 GiB (8%)
Title : Ю. Живов
Language : Russian
Default : No
Forced : No

Audio #3
ID : 4
Format : DTS XLL
Format/Info : Digital Theater Systems
Commercial name : DTS-HD Master Audio
Codec ID : A_DTS
Duration : 2 h 11 min
Bit rate mode : Variable
Bit rate : 5 378 kb/s
Channel(s) : 8 channels
Channel layout : C L R LFE Lb Rb Lss Rss
Sampling rate : 48.0 kHz
Frame rate : 93.750 FPS (512 SPF)
Bit depth : 24 bits
Compression mode : Lossless
Stream size : 4.94 GiB (9%)
Title : В. Белов
Language : Russian
Default : No
Forced : No

Audio #4
ID : 5
Format : DTS ES XLL
Format/Info : Digital Theater Systems
Commercial name : DTS-HD Master Audio
Codec ID : A_DTS
Duration : 2 h 11 min
Bit rate mode : Variable
Bit rate : 5 490 kb/s
Channel(s) : 8 channels
Channel layout : C L R Ls Rs LFE Lb Rb
Sampling rate : 48.0 kHz
Frame rate : 93.750 FPS (512 SPF)
Bit depth : 24 bits
Compression mode : Lossless
Stream size : 5.05 GiB (9%)
Title : Original
Language : English
Default : No
Forced : No

Text #1
ID : 6
Format : UTF-8
Codec ID : S_TEXT/UTF8
Codec ID/Info : UTF-8 Plain Text
Duration : 1 h 30 min
Bit rate : 1 b/s
Count of elements : 32
Stream size : 1.31 KiB (0%)
Title : Форсированные
Language : Russian
Default : Yes
Forced : No

Text #2
ID : 7
Format : UTF-8
Codec ID : S_TEXT/UTF8
Codec ID/Info : UTF-8 Plain Text
Duration : 2 h 1 min
Bit rate : 73 b/s
Count of elements : 1313
Stream size : 65.1 KiB (0%)
Title : Полные
Language : Russian
Default : No
Forced : No

Text #3
ID : 8
Format : UTF-8
Codec ID : S_TEXT/UTF8
Codec ID/Info : UTF-8 Plain Text
Duration : 17 min 56 s
Bit rate : 5 b/s
Count of elements : 24
Stream size : 700 Bytes (0%)
Title : Forced
Language : English
Default : No
Forced : No

Text #4
ID : 9
Format : UTF-8
Codec ID : S_TEXT/UTF8
Codec ID/Info : UTF-8 Plain Text
Duration : 2 h 1 min
Bit rate : 45 b/s
Count of elements : 1400
Stream size : 40.0 KiB (0%)
Title : Full
Language : English
Default : No
Forced : No

Text #5
ID : 10
Format : UTF-8
Codec ID : S_TEXT/UTF8
Codec ID/Info : UTF-8 Plain Text
Duration : 2 h 9 min
Bit rate : 48 b/s
Count of elements : 1707
Stream size : 46.0 KiB (0%)
Title : SDH
Language : English
Default : No
Forced : No

Menu
00:00:00.000 : :Chapter 1
00:03:33.338 : :Chapter 2
00:08:00.689 : :Chapter 3
00:10:28.628 : :Chapter 4
00:13:58.046 : :Chapter 5
00:17:02.021 : :Chapter 6
00:20:16.090 : :Chapter 7
00:22:11.330 : :Chapter 8
00:26:37.888 : :Chapter 9
00:30:32.039 : :Chapter 10
00:34:29.776 : :Chapter 11
00:36:00.992 : :Chapter 12
00:38:18.087 : :Chapter 13
00:40:37.101 : :Chapter 14
00:45:53.793 : :Chapter 15
00:48:53.848 : :Chapter 16
00:51:58.157 : :Chapter 17
00:54:43.113 : :Chapter 18
00:57:51.426 : :Chapter 19
01:00:48.186 : :Chapter 20
01:03:26.594 : :Chapter 21
01:07:09.567 : :Chapter 22
01:09:43.596 : :Chapter 23
01:13:11.470 : :Chapter 24
01:15:31.861 : :Chapter 25
01:17:27.726 : :Chapter 26
01:19:30.099 : :Chapter 27
01:24:50.711 : :Chapter 28
01:26:58.255 : :Chapter 29
01:31:04.250 : :Chapter 30
01:34:03.680 : :Chapter 31
01:37:33.181 : :Chapter 32
01:41:54.817 : :Chapter 33
01:44:52.995 : :Chapter 34
01:47:19.808 : :Chapter 35
01:51:29.766 : :Chapter 36
01:56:42.746 : :Chapter 37
02:00:12.414 : :Chapter 38
02:02:34.973 : :Chapter 39
02:10:31.907 : :Chapter 40



Скачать Люди Икс: Дни минувшего будущего через торрент https://d.radikal.ru/d31/1906/da/c03bc9d59dbe.png Скачать, смотреть онлайн Люди Икс: Дни минувшего будущего бесплантно в хорошем качестве Описание: В недалёком будущем мутанты близки к истреблению роботами-охотниками на мутантов Стражами. Единственная надежда для мутантов ... 10 10 4
Info! Серебряная раздача, засчитывается только 50% скачанного.
Торрент: Зарегистрирован [2019-06-10 02:10] · скачан: 27 раз
Статус: √ проверено
Размер: 56.73 GB
Как cкачать? Как скачать Люди Икс: Дни минувшего будущего через торрент | UTorrent

% Раздел Тема Автор DL S | L
Фильмы [HD 720p, 1080p] (Хороший звук DUB, MVO) [ 6.98 GB ] Люди Икс: Дни минувшего будущего / X-Men: Days of Future Past | Дубляж+AVO | 1080p, HEVC (10bit Мичман37 Скачать
1 | 0
Ultra HD (UHD: 2K, 4K, 8K) [ 29.03 GB ] Люди Икс: Дни минувшего будущего / X-Men: Days of Future Past | Лицензия | 2160p sheker187 Скачать
1 | 0
R.G. Resident & PiratVoice - Фильмы, Видео [ 3.46 GB ] Люди Икс: Дни минувшего будущего / X-Men: Days of Future Past | iTunes | HDRip-AVC, Дубляж (iTunes Dean24 Скачать
1 | 0
Фильмы 2014 [DVDrip, WEB-DLRip, HDrip] [ 1.46 GB ] Люди Икс: Дни минувшего будущего | Дубляж | HDRip, Дубляж Ворон Скачать
1 | 0
Фильмы 2014 [DVDrip, WEB-DLRip, HDrip] [ 1.75 GB ] Люди Икс: Дни минувшего будущего | | BDRip-AVC от potroks potroks Скачать
1 | 0
Фильмы 2014 [DVDrip, WEB-DLRip, HDrip] [ 2.91 GB ] Люди Икс: Дни минувшего будущего | | BDRip-AVC от potroks potroks Скачать
1 | 0
Фильмы [HD 720p, 1080p] (Хороший звук DUB, MVO) [ 5.27 GB ] Люди Икс: Дни минувшего будущего | | 720p от potroks potroks Скачать
1 | 0

28-11-2019 20:33  


Отключить вcю реклaмy на сайте, в т.ч. и в плеере онлайн просмотра!

    Дорогой пользователь! Огромная просьба, поблагодарите релизера, оцените раздачу и оставьте свои комментарий, если Вы скачали Люди Икс: Дни минувшего будущего через торрент бесплатно!!
    Комментировать посты могут только пользователи прошедшие не сложную регистрацию
    Показать сообщения:    


    Люди Икс: Дни минувшего будущего через торрент
    Скачать бесплатно Люди Икс: Дни минувшего будущего
    Люди Икс: Дни минувшего будущего скачать торрент
    Люди Икс: Дни минувшего будущего смотреть онлайн
    Cкачать фильм Люди Икс: Дни минувшего будущего бесплатно
    Люди Икс: Дни минувшего будущего скачать торрент в хорошем качестве
    Люди Икс: Дни минувшего будущего смотреть онлайн бесплатно в хорошем качестве
    Вы не можете начинать темы
    Вы не можете отвечать на сообщения
    Вы не можете редактировать свои сообщения
    Вы не можете удалять свои сообщения
    Вы не можете голосовать в опросах
    Вы не можете прикреплять файлы к сообщениям
    Вы можете скачивать файлы
    Люди Икс: Дни минувшего будущего / X-Men: Days of Future Past [2014, фантастика, фэнтези, боевик, приключения, UHD BDRemux 2160p] Дубляж + 2xAVO [Tеатральная версия] смотреть онлайн, скачать торрент picoco.icu