MEGA SALE -50% FORZA HORIZON 4 ULTIMATE+ВСЕ DLC+ОНЛАЙН всего за 599р. 299 руб. (супер цена). Внимание количество ограничено!!!

iTunes

1+1

iTunes

мы

iTunes

1

iTunes

Чернобыль

iTunes

Ральф против интернета

Лицензия

ПШазам

Лицензия

Игра престолов

Лицензия

30
pack

ВАЖНО

!!Акция!!

Alien_RageХит недели

RePack

Resident Evil 21

ИГРА 18+

pack

RePack

Metro:Exodus

!!Акция!!

Alien_Rage

RePack

fifa19

RePack

Assassins Creed: Odyssey

RePack

NEED FOR SPEED™ PAYBACK

3 сезон

9 сезон

Бесстыжие 9 сезон

Все сериалы

все сериалы на PB.wtf

RePack

FAR CRY 5
Ребята, катастрофически не хватает 7730р. для оплаты серверов за АВГУСТ (всвязи с блокировками трафик упал в 3 раза), 1-2р., выручайте.
  

Миа и белый лев / Mia et le lion blanc (Жиль де Мэтр) [2018, драма, приключения, семейный, BDRip 1080p] DUB [iTunes] piratbit.org

Миа и белый лев через торрент piratbit.org

Раздают: 1 [ 0 KB/s ]
Размер: 8.61 GB | Добавлен: 3 мес. 7 д. назад | Торрент скачан:156 раз
Скачать  

10-06-2019 10:27 Миа и белый лев Скачать торрент  

Миа и белый лев / Mia et le lion blanc Год выпуска: 2018
Страна: Франция , Германия , ЮАР
Жанр: драма, приключения, семейный
Продолжительность: 01:38:15
Перевод: Дублированный | iTunes
Субтитры: Французские

Режиссер: Жиль де Мэтр

rating

В ролях:

Даниа Де Вилье, Мелани Лоран, Лэнгли Кирквуд, Райан Мак Леннан, Лайонел Ньютон, Лиллиэн Дюбэ, Брэндон Оре, Пол Дэвис, Эшли Харви, Тесса Джуббер

Описание:

Миа вместе с семьей переезжает в Южную Африку из Лондона, где ее родители покупают ферму по разведению львов. Девочку ничего не радует на новом месте, ей хочется вернуться в Лондон, где остались ее друзья и беззаботная подростковая жизнь. Но внезапно на нее сваливается забота о маленьком белом львенке по имени Чарли, который остался без родителей. И вся ее жизнь круто меняется... Они становятся неразлучны, пока однажды Миа не узнает, что ее другу грозит серьезная опасность. Тогда она решает сбежать и найти для Чарли новый дом, где он будет счастлив и свободен.

Качество: BDRip 1080p
Формат: MKV

Видео: AVC/H.264, 1920x804, ~10,7 Мbps, 23.976 fps
Аудио#1: AC3, 6 ch, 384 Kbps - Русский
Аудио#2: DTS, 6 ch, 1509 Kbps - Английский
скриншот  скриншот  скриншот  скриншот  

Общее
Уникальный идентификатор : 23207692214572342349202435941243084887 (0x1175A3916A6814DEF82A8645C8A4E057)
Полное имя : Mia and the White Lion.2018.BDRip.1080p.W.mkv
Формат : Matroska
Версия формата : Version 4
Размер файла : 8,61 Гбайт
Продолжительность : 1 ч. 38 м.
Общий поток : 12,5 Мбит/сек
Название фильма : Mia et le lion blanc.2018.BDRip.1080p.W
Дата кодирования : UTC 2019-06-10 09:08:25
Программа кодирования : mkvmerge v23.0.0 ('The Bride Said No') 64-bit
Библиотека кодирования : libebml v1.3.6 + libmatroska v1.4.9

Видео
Идентификатор : 1
Формат : AVC
Формат/Информация : Advanced Video Codec
Профиль формата : High@L4.1
Настройки формата : CABAC / 5 Ref Frames
Параметр CABAC формата : Да
Параметр RefFrames формата : 5 кадров
Идентификатор кодека : V_MPEG4/ISO/AVC
Продолжительность : 1 ч. 38 м.
Битрейт : 10,7 Мбит/сек
Ширина : 1920 пикселей
Высота : 804 пикселя
Соотношение сторон : 2,40:1
Режим частоты кадров : Постоянный
Частота кадров : 23,976 (23976/1000) кадра/сек
Цветовое пространство : YUV
Субдискретизация насыщенности : 4:2:0
Битовая глубина : 8 бит
Тип развёртки : Прогрессивная
Бит/(Пиксели*Кадры) : 0.288
Размер потока : 7,31 Гбайт (85%)
Заголовок : rip by -=walledol=-
Библиотека кодирования : x264 core 157 r2969 d4099dd
Настройки программы : cabac=1 / ref=5 / deblock=1:-3:-3 / analyse=0x3:0x133 / me=umh / subme=11 / psy=1 / psy_rd=1.00:0.01 / mixed_ref=1 / me_range=32 / chroma_me=1 / trellis=2 / 8x8dct=1 / cqm=0 / deadzone=21,11 / fast_pskip=0 / chroma_qp_offset=-3 / threads=12 / lookahead_threads=2 / sliced_threads=0 / nr=0 / decimate=1 / interlaced=0 / bluray_compat=0 / constrained_intra=0 / bframes=8 / b_pyramid=2 / b_adapt=2 / b_bias=0 / direct=3 / weightb=1 / open_gop=0 / weightp=2 / keyint=240 / keyint_min=23 / scenecut=40 / intra_refresh=0 / rc_lookahead=60 / rc=2pass / mbtree=1 / bitrate=10665 / ratetol=1.0 / qcomp=0.60 / qpmin=0 / qpmax=69 / qpstep=4 / cplxblur=20.0 / qblur=0.5 / vbv_maxrate=30000 / vbv_bufsize=33000 / nal_hrd=none / filler=0 / ip_ratio=1.40 / aq=3:0.75
Язык : English
Default : Да
Forced : Нет

Аудио #1
Идентификатор : 2
Формат : AC-3
Формат/Информация : Audio Coding 3
Коммерческое название : Dolby Digital
Идентификатор кодека : A_AC3
Продолжительность : 1 ч. 38 м.
Вид битрейта : Постоянный
Битрейт : 384 Кбит/сек
Каналы : 6 каналов
ChannelLayout : L R C LFE Ls Rs
Частота : 48,0 КГц
Частота кадров : 31,250 кадров/сек (1536 SPF)
Битовая глубина : 16 бит
Метод сжатия : С потерями
Размер потока : 270 Мбайт (3%)
Заголовок : DUB | iTunes
Язык : Russian
ServiceKind : Complete Main
Default : Да
Forced : Нет

Аудио #2
Идентификатор : 3
Формат : DTS
Формат/Информация : Digital Theater Systems
Идентификатор кодека : A_DTS
Продолжительность : 1 ч. 38 м.
Вид битрейта : Постоянный
Битрейт : 1509 Кбит/сек
Каналы : 6 каналов
ChannelLayout : C L R Ls Rs LFE
Частота : 48,0 КГц
Частота кадров : 93,750 кадра/сек (512 SPF)
Битовая глубина : 24 бит
Метод сжатия : С потерями
Размер потока : 1,04 Гбайт (12%)
Язык : English
Default : Нет
Forced : Нет

Текст
Идентификатор : 4
Формат : UTF-8
Идентификатор кодека : S_TEXT/UTF8
Идентификатор кодека/Информация : UTF-8 Plain Text
Продолжительность : 1 ч. 37 м.
Битрейт : 36 бит/сек
ElementCount : 1045
Размер потока : 26,3 Кбайт (0%)
Язык : French
Default : Нет
Forced : Нет

Меню
00:00:00.000 : en:Chapter 1
00:08:18.707 : en:Chapter 2
00:17:59.578 : en:Chapter 3
00:25:00.833 : en:Chapter 4
00:34:04.876 : en:Chapter 5
00:41:59.517 : en:Chapter 6
00:52:34.026 : en:Chapter 7
01:02:35.001 : en:Chapter 8
01:11:51.140 : en:Chapter 9
01:20:24.111 : en:Chapter 10
01:29:41.835 : en:Chapter 11
01:35:44.030 : en:Chapter 12

piratbit.org



Скачать Миа и белый лев через торрент https://i110.fastpic.ru/big/2019/0610/d5/379e11896501a6544f9f4f7bb46456d5.png Скачать фильм Миа и белый лев через торрент бесплантно в хорошем качестве Описание: Миа вместе с семьей переезжает в Южную Африку из Лондона, где ее родители покупают ферму по разведению львов. Девочку ничего не ... 10 10 7
Торрент: Зарегистрирован [2019-06-10 10:27] · скачан: 156 раз
Статус: √ проверено
Размер: 8.61 GB
Как cкачать? Как скачать Миа и белый лев через торрент | qTorrent

% Раздел Тема Автор DL S | L
Ultra HD (UHD: 2K, 4K, 8K) — видео сверхвысокой чёткости [ 56.83 GB ] Миа и белый лев / Mia et le lion blanc [2018 UHD Blu-ray 2160p] sheker187 Скачать
2 | 0
Фильмы 2018 [DVDrip, WEB-DLRip, HDrip] (DUB, MVO) [ 1.42 GB ] Миа и белый лев / Mia et le lion blanc [2018 BDRip] - Twi7ter Скачать
33 | 2
Ultra HD (UHD: 2K, 4K, 8K) — видео сверхвысокой чёткости [ 55.92 GB ] Миа и белый лев / Mia et le lion blanc [2018 UHD BDRemux 2160p] DUB + MVO [HDrezka Studio] sheker187 Скачать
1 | 0
Фильмы (Blu-ray, BD-Remux, HDDVD) [ 26.19 GB ] Миа и белый лев / Mia et le lion blanc [2018 BD Remux 1080p] bober100 Скачать
2 | 0
Фильмы [HD 720p, 1080p] (Хороший звук DUB, MVO) [ 5.23 GB ] Миа и белый лев / Mia et le lion blanc [2018 BDRip 720p] bober100 Скачать
2 | 0
Фильмы 2018 [DVDrip, WEB-DLRip, HDrip] (DUB, MVO) [ 1.81 GB ] Миа и белый лев / Mia et le lion blanc [2018 BDRip-AVC] bober100 Скачать
2 | 0
Фильмы с украинским озвучиванием [ 1.44 GB ] Миа и белый лев / Mia and the White Lion / Mia et le lion blanc [2018 BDRip] [Ukr DUB] killermax2013 Скачать
1 | 0


>> Регистрируемся здесь <<






Отзывы и комментарии о схеме читаем и пишем здесь: ---> Отзывы и комментарии о схеме

Новые благодарочки в телеграм довольных пользователей:
скриншот   скриншот   скриншот   скриншот   скриншот
    Дорогой пользователь! Огромная просьба, поблагодарите релизера, оцените раздачу и оставьте свои комментарий, если Вы скачали Миа и белый лев через торрент бесплатно! Внесите свою лепту в развитие PiratBit!
    Комментировать посты могут только пользователи прошедшие не сложную регистрацию
    Показать сообщения:    

    Миа и белый лев через торрент
    Скачать бесплатно Миа и белый лев
    Миа и белый лев скачать торрент
    Миа и белый лев смотреть онлайн
    Cкачать фильм Миа и белый лев бесплатно
    Миа и белый лев скачать торрент в хорошем качестве
    Миа и белый лев смотреть онлайн бесплатно в хорошем качестве


    Вы не можете начинать темы
    Вы не можете отвечать на сообщения
    Вы не можете редактировать свои сообщения
    Вы не можете удалять свои сообщения
    Вы не можете голосовать в опросах
    Вы не можете прикреплять файлы к сообщениям
    Вы можете скачивать файлы