Доктор Стрэндж

Лицензия

Добыча

MVO

Дом дракона

1 сезон

Тор

Лицензия

Мэверик

Лицензия

Там, где раки поют

MVO

Властелин колец

1 сезон

Ultimate

pack

Рекомендуем

30

Repack

ВАЖНО

ВАЖНО

Ghostwire

RePack

jed

RePack

nioh2

RePack

RDR2

RePack

NEED FOR SPEED™ PAYBACK

RePack

скачать торрент

Кинопоиск HD

Острые козырьки 6 сезон

6 сезон

FAR CRY 6

RePack

скачать торрент

Лицензия

скачать торрент

MVO

1

1 сезон

скачать торрент

1 сезон

скачать торрент

Лицензия

  

Под землёй (Роланд Калныньш) [1963, военный, драма, SATRip от AVP Studio]

Под землёй через торрент piratbit.org

Качают: 1 [ 0 KB/s ]
Размер: 372 MB | Добавлен: 3 года 3 мес. назад | Торрент скачан:12 раз
Смотреть онлайн Под землёй | Скачать   

10-06-2019 10:27 Под землёй Скачать торрент  

Под землёй
Страна: СССР
Производство: Рижская киностудия

Жанр: военный, драма
Год выпуска: 1963
Продолжительность: 00:38:01

Перевод: Не требуется
Cубтитры: нет
Оригинальная аудиодорожка: русский

Режиссер: Роланд Калныньш

В ролях:
Женя Евсеев, Вася Зевакин, Люся Пикаревская, Алексей Сафонов, Миша Долгов, Родион Гордиенко, Янис Кубилис, Владимир Цибин, Алексей Михайлов...
Об актёрах подробней

Описание:
Разведчик Смоляков (Алексей Сафонов) тяжело ранен. С картой, где отмечены военные объекты фашистов, он пробирается к своим. Его находят без сознания местные школьники и укрывают в пещерах. Ребята берутся доставить карту через линию фронта. Люба остается с раненым, а Вася и Ерёма отправляются в опасный путь подземными ходами. Враги по доносу старосты Стоедова устанавливают слежку за ребятами. Они схватили Любу, но ей удалось бежать. Карта доставлена в штаб. Группа советских разведчиков пробирается в подземелье, где спрятан Смоляков. Разведчики уничтожают эсэсовцев, которые преследовали ребят. Начинается наступление советских войск.

Исходник: DVB
Качество видео: SATRip
Формат видео: AVI

Видео: 704x496 (1,419:1), 25,000 кадров/сек, XviD ~ 1168 kbps avg, 0.134 bit/pixel
Аудио: 48 kHz, Dolby Digital AC3 2.0, 192 kbps

Раздача от:
Общее
Полное имя : Pod.zemlyoy.1963.SATRip_[New-team]_by_AVP_Studio.avi
Формат : AVI
Формат/Информация : Audio Video Interleave
Размер файла : 372 Мбайт
Продолжительность : 38 м. 1 с.
Общий поток : 1369 Кбит/сек
Программа кодирования : VirtualDubMod 1.5.10.3 | www.virtualdub-fr.org || (build 2550/release)
Библиотека кодирования : VirtualDubMod build 2550/release

Видео
Идентификатор : 0
Формат : MPEG-4 Visual
Профиль формата : Advanced Simple@L5
Настройки формата : BVOP1 / Custom Matrix
Параметр BVOP формата : 1
Параметр QPel формата : Нет
Параметр GMC формата : Без точки перехода
Параметр матрицы формата : Выборочная
Идентификатор кодека : XVID
Идентификатор кодека/Подсказка : XviD
Продолжительность : 38 м. 1 с.
Битрейт : 1168 Кбит/сек
Ширина : 704 пикселя
Высота : 496 пикселей
Соотношение сторон : 1,419
Частота кадров : 25,000 кадров/сек
Цветовое пространство : YUV
Субдискретизация насыщенности : 4:2:0
Битовая глубина : 8 бит
Тип развёртки : Прогрессивная
Метод сжатия : С потерями
Бит/(Пиксели*Кадры) : 0.134
Размер потока : 318 Мбайт (85%)
Библиотека кодирования : XviD 73

Аудио
Идентификатор : 1
Формат : AC-3
Формат/Информация : Audio Coding 3
Коммерческое название : Dolby Digital
Идентификатор кодека : 2000
Продолжительность : 38 м. 1 с.
Вид битрейта : Постоянный
Битрейт : 192 Кбит/сек
Каналы : 2 канала
ChannelLayout : L R
Частота : 48,0 КГц
Частота кадров : 31,250 кадров/сек (1536 SPF)
Битовая глубина : 16 бит
Метод сжатия : С потерями
Размер потока : 52,2 Мбайт (14%)
Выравнивание : Разделение по промежуткам
Продолжительность промежутка : 40 мс. (1,00 видеокадр)
Время предзагрузки промежутка : 500 мс.



Скачать Под землёй через торрент http://picplus.ru/img/1906/10/d0c65755.png Скачать, смотреть онлайн Под землёй бесплантно в хорошем качестве Описание:Разведчик Смоляков (Алексей Сафонов) тяжело ранен. С картой, где отмечены военные объекты фашистов, он пробирается к своим. Его ... 5 10 1
Info! Золотая раздача, скачанное не засчитывается.
Торрент: Зарегистрирован [2019-06-10 10:27] · скачан: 12 раз
Статус: √ проверено
Размер: 372 MB
Как cкачать? Как скачать Под землёй через торрент | UTorrent

% Раздел Тема Автор DL S | L
Кино СССР [ 500 MB ] Под землёй | | SATRip-AVC от AVP Studio AVP Studio Скачать
1 | 0

28-11-2019 20:33  

Отключить вcю реклaмy на сайте

    Дорогой пользователь! Огромная просьба, поблагодарите релизера, оцените раздачу и оставьте свои комментарий, если Вы скачали Под землёй через торрент бесплатно!!
    Комментировать посты могут только пользователи прошедшие не сложную регистрацию
    Показать сообщения:    


    Под землёй через торрент
    Скачать бесплатно Под землёй
    Под землёй скачать торрент
    Под землёй смотреть онлайн
    Cкачать фильм Под землёй бесплатно
    Под землёй скачать торрент в хорошем качестве
    Под землёй смотреть онлайн бесплатно в хорошем качестве
    Вы не можете начинать темы
    Вы не можете отвечать на сообщения
    Вы не можете редактировать свои сообщения
    Вы не можете удалять свои сообщения
    Вы не можете голосовать в опросах
    Вы не можете прикреплять файлы к сообщениям
    Вы можете скачивать файлы