MEGA SALE -50% FORZA HORIZON 4 ULTIMATE+ВСЕ DLC+ОНЛАЙН всего за 599р. 299 руб. (супер цена). Внимание количество ограничено!!!

iTunes

1+1

iTunes

мы

iTunes

1

iTunes

Чернобыль

iTunes

Ральф против интернета

Лицензия

ПШазам

Лицензия

Игра престолов

Лицензия

30
pack

ВАЖНО

!!Акция!!

Alien_RageХит недели

RePack

Resident Evil 21

ИГРА 18+

pack

RePack

Metro:Exodus

!!Акция!!

Alien_Rage

RePack

fifa19

RePack

Assassins Creed: Odyssey

RePack

NEED FOR SPEED™ PAYBACK

3 сезон

9 сезон

Бесстыжие 9 сезон

Все сериалы

все сериалы на PB.wtf

RePack

FAR CRY 5
Ребята, катастрофически не хватает 7730р. для оплаты серверов за АВГУСТ (всвязи с блокировками трафик упал в 3 раза), 1-2р., выручайте.
  

Встреча выпускников 1.0 / Klassentreffen 1.0 (Тиль Швайгер) [2018, комедия, BDRip 720p] DUB [iTunes] piratbit.org

Встреча выпускников 1.0 через торрент piratbit.org

Размер: 4.69 GB | Добавлен: 3 мес. 1 д. назад | Торрент скачан:126 раз
Скачать  

10-06-2019 16:58 Встреча выпускников 1.0 Скачать торрент  

Встреча выпускников 1.0 / Klassentreffen 1.0
Год выпуска: 2018
Страна: Германия
Жанр: комедия
Продолжительность: 02:07:18
Перевод: Дублированный | iTunes
Субтитры: отсутствуют

Режиссер: Тиль Швайгер

rating

В ролях:

Тиль Швайгер, Самуэль Финци, Милан Пешель, Лили Швайгер, Штефани Штаппенбек, Жанетт Хайн, Дэвид Шюттер, Катарина Шюттлер, Симон Шварц, Бьянка Наврат

Описание:

Спустя тридцать лет после окончания школы, трое бывших одноклассников собрались вместе, чтобы отпраздновать встречу выпускников.

Качество: BDRip 720p
Формат: MKV

Видео: MPEG-4 AVC, 4888 Кбит/с, 1280х536
Аудио: AC3, 6 ch, 384 Кбит/с
скриншот  скриншот  скриншот  скриншот  

Общее
Уникальный идентификатор : 180132708991183195274600664838874838650 (0x87844C3DFEC330F894AE9563FA1BB67A)
Полное имя : D:\Vstrecha.vyipusknikov.2018.BDRip.720p.x264.ELEKTRI4KA.UNIONGANG.mkv
Формат : Matroska
Версия формата : Version 4 / Version 2
Размер файла : 4,69 Гбайт
Продолжительность : 2 ч. 7 м.
Общий поток : 5271 Кбит/сек
Дата кодирования : UTC 2019-06-16 23:11:37
Программа кодирования : mkvmerge v8.3.0 ('Over the Horizon') 64bit
Библиотека кодирования : libebml v1.3.1 + libmatroska v1.4.2

Видео
Идентификатор : 1
Формат : AVC
Формат/Информация : Advanced Video Codec
Профиль формата : High@L4.1
Параметр CABAC формата : Да
Параметр RefFrames формата : 5 кадров
Идентификатор кодека : V_MPEG4/ISO/AVC
Продолжительность : 2 ч. 7 м.
Битрейт : 4888 Кбит/сек
Ширина : 1280 пикселей
Высота : 536 пикселей
Соотношение сторон : 2,40:1
Режим частоты кадров : Постоянный
Частота кадров : 23,976 (24000/1001) кадра/сек
Цветовое пространство : YUV
Субдискретизация насыщенности : 4:2:0
Битовая глубина : 8 бит
Тип развёртки : Прогрессивная
Бит/(Пиксели*Кадры) : 0.297
Размер потока : 4,25 Гбайт (91%)
Заголовок : ELEKTRI4KA
Библиотека кодирования : x264 core 146 r2538 121396c
Настройки программы : cabac=1 / ref=5 / deblock=1:0:0 / analyse=0x3:0x113 / me=umh / subme=8 / psy=1 / psy_rd=1.00:0.00 / mixed_ref=1 / me_range=16 / chroma_me=1 / trellis=1 / 8x8dct=1 / cqm=0 / deadzone=21,11 / fast_pskip=1 / chroma_qp_offset=-2 / threads=18 / lookahead_threads=3 / sliced_threads=0 / nr=0 / decimate=1 / interlaced=0 / bluray_compat=0 / constrained_intra=0 / bframes=3 / b_pyramid=2 / b_adapt=2 / b_bias=0 / direct=3 / weightb=1 / open_gop=0 / weightp=2 / keyint=250 / keyint_min=23 / scenecut=40 / intra_refresh=0 / rc_lookahead=50 / rc=2pass / mbtree=1 / bitrate=4888 / ratetol=1.0 / qcomp=0.60 / qpmin=0 / qpmax=69 / qpstep=4 / cplxblur=20.0 / qblur=0.5 / vbv_maxrate=62500 / vbv_bufsize=78125 / nal_hrd=none / filler=0 / ip_ratio=1.40 / aq=1:1.00
Default : Да
Forced : Да
Цветовой диапазон : Limited
Коэффициенты матрицы : BT.709

Аудио
Идентификатор : 2
Формат : AC-3
Формат/Информация : Audio Coding 3
Расширение режима : CM (complete main)
Параметр Endianness формата : Big
Идентификатор кодека : A_AC3
Продолжительность : 2 ч. 7 м.
Вид битрейта : Постоянный
Битрейт : 384 Кбит/сек
Каналы : 6 каналов
Расположение каналов : Front: L C R, Side: L R, LFE
Частота : 48,0 КГц
Частота кадров : 31,250 кадров/сек (1536 spf)
Метод сжатия : С потерями
Размер потока : 350 Мбайт (7%)
Заголовок : iTunes ELEKTRI4KA
Язык : Russian
Default : Да
Forced : Нет

piratbit.org



Скачать Встреча выпускников 1.0 через торрент https://i1.imageban.ru/out/2019/06/18/fee9b9603f71e5b82a2d188a7bd72366.jpg Скачать фильм Встреча выпускников 1.0 через торрент бесплантно в хорошем качестве Описание: Спустя тридцать лет после окончания школы, трое бывших одноклассников собрались вместе, чтобы отпраздновать встречу ... 10 10 7
Торрент: Зарегистрирован [2019-06-19 06:49] · скачан: 126 раз
Статус: T временная
Размер: 4.69 GB
Как cкачать? Как скачать Встреча выпускников 1.0 через торрент | qTorrent

% Раздел Тема Автор DL S | L
Фильмы 2018 [DVDrip, WEB-DLRip, HDrip] (DUB, MVO) [ 1.46 GB ] Встреча выпускников 1.0 / Klassentreffen 1.0 [2018 HDRip] killermax2013 Скачать
1 | 0
Фильмы [HD 720p, 1080p] (Хороший звук DUB, MVO) [ 7.85 GB ] Встреча выпускников 1.0 / Klassentreffen 1.0 [2018 BDRip 1080p] bober100 Скачать
2 | 0


Последний раз редактировалось: bober100 (2019-06-20 03:02), всего редактировалось 1 раз


>> Регистрируемся здесь <<






Отзывы и комментарии о схеме читаем и пишем здесь: ---> Отзывы и комментарии о схеме

Новые благодарочки в телеграм довольных пользователей:
скриншот   скриншот   скриншот   скриншот   скриншот

19-06-2019 10:50 Встреча выпускников 1.0 Скачать торрент  

рейтинг у фильма просто бомбическийpiratbit.org



19-06-2019 13:00 Встреча выпускников 1.0 Скачать торрент  

2 cкриншот нормpiratbit.org



    Дорогой пользователь! Огромная просьба, поблагодарите релизера, оцените раздачу и оставьте свои комментарий, если Вы скачали Встреча выпускников 1.0 через торрент бесплатно! Внесите свою лепту в развитие PiratBit!
    Комментировать посты могут только пользователи прошедшие не сложную регистрацию
    Показать сообщения:    

    Встреча выпускников 1.0 через торрент
    Скачать бесплатно Встреча выпускников 1.0
    Встреча выпускников 1.0 скачать торрент
    Встреча выпускников 1.0 смотреть онлайн
    Cкачать фильм Встреча выпускников 1.0 бесплатно
    Встреча выпускников 1.0 скачать торрент в хорошем качестве
    Встреча выпускников 1.0 смотреть онлайн бесплатно в хорошем качестве


    Вы не можете начинать темы
    Вы не можете отвечать на сообщения
    Вы не можете редактировать свои сообщения
    Вы не можете удалять свои сообщения
    Вы не можете голосовать в опросах
    Вы не можете прикреплять файлы к сообщениям
    Вы можете скачивать файлы