MEGA SALE -50% FORZA HORIZON 4 ULTIMATE+ВСЕ DLC+ОНЛАЙН всего за 599р. 299 руб. (супер цена). Внимание количество ограничено!!!

iTunes

1+1

iTunes

мы

iTunes

1

iTunes

Чернобыль

iTunes

Ральф против интернета

Лицензия

ПШазам

Лицензия

Игра престолов

Лицензия

30
pack

ВАЖНО

!!Акция!!

Alien_RageХит недели

RePack

Resident Evil 21

ИГРА 18+

pack

RePack

Metro:Exodus

!!Акция!!

Alien_Rage

RePack

fifa19

RePack

Assassins Creed: Odyssey

RePack

NEED FOR SPEED™ PAYBACK

3 сезон

9 сезон

Бесстыжие 9 сезон

Все сериалы

все сериалы на PB.wtf

RePack

FAR CRY 5
Ребята, катастрофически не хватает 7730р. для оплаты серверов за АВГУСТ (всвязи с блокировками трафик упал в 3 раза), 1-2р., выручайте.
  

Пилигрим (Александр Баршак) [2019, Триллер, WEB-DL 1080p] [iTunes] piratbit.org

Пилигрим через торрент piratbit.org

Раздают: 5 [ 0 KB/s ]
Размер: 3.33 GB | Добавлен: 3 мес. 5 д. назад | Торрент скачан:208 раз
Скачать  

12-06-2019 03:23 Пилигрим Скачать торрент  

Пилигрим Год выпуска: 2019
Страна: Россия
Жанр: Триллер
Продолжительность: 01:37:09
Перевод: Не требуется | iTunes
Субтитры: отсутствуют

Режиссер: Александр Баршак



В ролях:

Игорь Петренко, Елена Север, Алексей Серебряков, Владимир Ильин, Татьяна Васильева, Анна Банщикова, Дмитрий Мухамадеев, Дмитрий Куличков, Сергей Беляев, Павел Кузьмин

Описание:

В жизни Миры всё замечательно: она - владелица модной галереи, дома ждёт любящий муж. Но однажды на берегу моря находят мужчину с амнезией, который помнит её имя. Никто не знает, кто он. Его нет ни в одной базе данных. Но он знает о ней то, что может знать только очень близкий человек, хотя Мира ни разу в жизни его не видела. Благополучный мир Миры начинает разрушаться, когда выясняется, что неизвестный провёл несколько лет на Ближнем Востоке и за ним идёт настоящая охота.

Качество: WEB-DL 1080p
Формат: MKV

Видео: MPEG4 AVC Video, H264, 2.40:1, 1920x806, 24 fps, 4429 kbps
Аудио: 48 kHz, AC3 Dolby Digital, 3/2 (L,C,R,l,r) + LFE ch, ~384 kbps
скриншот  скриншот  скриншот  скриншот  

General
Unique ID : 205504486160418941968119565155962819241 (0x9A9AB96FABFA89EB8DDF67CBDEED92A9)
Complete name : D:\Piligrim.2019.WEB-DL.1080p.ELEKTRI4KA.UNIONGANG.mkv
Format : Matroska
Format version : Version 2
File size : 3.33 GiB
Duration : 1 h 37 min
Overall bit rate : 4 911 kb/s
Movie name : Piligrim.2019.ELEKTRI4KA.UNIONGANG
Encoded date : UTC 2019-06-14 18:37:07
Writing application : mkvmerge v7.8.0 ('River Man') 32bit built on Apr 3 2015 12:11:22
Writing library : libebml v1.3.1 + libmatroska v1.4.2

Video
ID : 2
Format : AVC
Format/Info : Advanced Video Codec
Format profile : High@L4
Format settings : CABAC / 5 Ref Frames
Format settings, CABAC : Yes
Format settings, ReFrames : 5 frames
Codec ID : V_MPEG4/ISO/AVC
Duration : 1 h 37 min
Bit rate : 4 429 kb/s
Width : 1 920 pixels
Height : 806 pixels
Display aspect ratio : 2.40:1
Frame rate mode : Constant
Frame rate : 24.000 FPS
Color space : YUV
Chroma subsampling : 4:2:0
Bit depth : 8 bits
Scan type : Progressive
Bits/(Pixel*Frame) : 0.119
Stream size : 3.01 GiB (90%)
Title : rus.ELEKTRI4KA.UNIONGANG
Language : English
Default : Yes
Forced : No
Color range : Limited
Color primaries : BT.709
Transfer characteristics : BT.709
Matrix coefficients : BT.709

Audio
ID : 1
Format : AC-3
Format/Info : Audio Coding 3
Codec ID : A_AC3
Duration : 1 h 37 min
Bit rate mode : Constant
Bit rate : 384 kb/s
Channel(s) : 6 channels
Channel positions : Front: L C R, Side: L R, LFE
Sampling rate : 48.0 kHz
Frame rate : 31.250 FPS (1536 SPF)
Bit depth : 16 bits
Compression mode : Lossy
Stream size : 267 MiB (8%)
Title : rus.ELEKTRI4KA.UNIONGANG
Language : Russian
Service kind : Complete Main
Default : Yes
Forced : No

Menu
00:00:00.000 : en:Глава 1
00:06:24.708 : en:Глава 2
00:14:19.041 : en:Глава 3
00:23:52.416 : en:Глава 4
00:30:49.206 : en:Глава 5
00:37:25.788 : en:Глава 6
00:44:26.538 : en:Глава 7
00:50:39.371 : en:Глава 8
00:58:29.162 : en:Глава 9
01:06:16.745 : en:Глава 10
01:11:36.620 : en:Глава 11
01:19:25.411 : en:Глава 12
01:24:52.577 : en:Глава 13

piratbit.org



Скачать Пилигрим через торрент https://c.radikal.ru/c35/1906/8d/3a8938d667fc.jpg Скачать фильм Пилигрим через торрент бесплантно в хорошем качестве Описание: В жизни Миры всё замечательно: она - владелица модной галереи, дома ждёт любящий муж. Но однажды на берегу моря находят мужчину с ... 9.3 10 22
Info! Золотая раздача, скачанное не засчитывается.
Торрент: Зарегистрирован [2019-06-14 20:17] · скачан: 208 раз
Статус: √ проверено
Размер: 3.33 GB
Как cкачать? Как скачать Пилигрим через торрент | qTorrent

% Раздел Тема Автор DL S | L
Наши новые фильмы 2018-2019 [ 1.45 GB ] Пилигрим [2019 WEB-DLRip] bober100 Скачать
19 | 0
Наши новые фильмы 2018-2019 [ 743 MB ] Пилигрим [2019 WEB-DLRip] bober100 Скачать
33 | 0
Наши фильмы (HD, WEB-DL 720p, 1080p) [ 2.99 GB ] Пилигрим [2019 WEB-DL 720p] bober100 Скачать
4 | 0
Фантастика [ 704 MB ] Владимир Василенко - Серый пилигрим [Чернов Александр 2018 128 kbps MP3] bober100 Скачать
1 | 0
Кино СССР [ 1.37 GB ] Капитан «Пилигрима» [1986 DVDRip-AVC] smaster Скачать
1 | 0
Фильмы 2010 [ 2.18 GB ] Скотт Пилигрим против всех / Scott Pilgrim vs. the World [2010 BDRip + Оригинал] F.U. Скачать
1 | 0
Фильмы 2014 [DVDrip, WEB-DLRip, HDrip] [ 1.46 GB ] Пилигрим: Пауло Коэльо / Não Pare na Pista: A Melhor História de Paulo Coelho [2014 биография музыка WEB-DLRip ] Ворон Скачать
1 | 0


>> Регистрируемся здесь <<






Отзывы и комментарии о схеме читаем и пишем здесь: ---> Отзывы и комментарии о схеме

Новые благодарочки в телеграм довольных пользователей:
скриншот   скриншот   скриншот   скриншот   скриншот

16-06-2019 23:17 Пилигрим Скачать торрент  

Вроде и ничего фильм, но раздражают две вещи:
- казино
- актеры реально переигрывают все эти душевные страдания и все такое... скучно на это смотреть.

В остальном - фильм со смыслом...piratbit.org



16-06-2019 23:40 Пилигрим Скачать торрент  

дополню. от фильма прям разит нтв-щиной и донцовой)) но смотреть не противноpiratbit.org



    Дорогой пользователь! Огромная просьба, поблагодарите релизера, оцените раздачу и оставьте свои комментарий, если Вы скачали Пилигрим через торрент бесплатно! Внесите свою лепту в развитие PiratBit!
    Комментировать посты могут только пользователи прошедшие не сложную регистрацию
    Показать сообщения:    

    Пилигрим через торрент
    Скачать бесплатно Пилигрим
    Пилигрим скачать торрент
    Пилигрим смотреть онлайн
    Cкачать фильм Пилигрим бесплатно
    Пилигрим скачать торрент в хорошем качестве
    Пилигрим смотреть онлайн бесплатно в хорошем качестве


    Вы не можете начинать темы
    Вы не можете отвечать на сообщения
    Вы не можете редактировать свои сообщения
    Вы не можете удалять свои сообщения
    Вы не можете голосовать в опросах
    Вы не можете прикреплять файлы к сообщениям
    Вы можете скачивать файлы