Мега распродажа FORZA HORIZON 4 ULTIMATE+ВСЕ DLC+ОНЛАЙН всего за 499р. 349 руб. (супер цена). Внимание количество ограничено!!!

Лицензия

30

iTunes

мы

iTunes

1

1 сезон

Чернобыль

1 сезон

Ральф против интернета

MVO

Покемон. Детектив Пикачу

8 сезон

Игра престолов

iTunes

1+1

ИГРА 18+

pack

ВАЖНО

!!Акция!!

Alien_RageХит недели

RePack

Resident Evil 21
pack

RePack

Metro:Exodus

!!Акция!!

Alien_Rage

RePack

fifa19

RePack

Assassins Creed: Odyssey

RePack

NEED FOR SPEED™ PAYBACK

3 сезон

9 сезон

Бесстыжие 9 сезон

Все сериалы

все сериалы на PB.wtf

RePack

FAR CRY 5
Ребята, катастрофически не хватает 2730р. для оплаты серверов за МАЙ (всвязи с блокировками трафик упал в 3 раза), 1-2р., выручайте.
  

Как продать наркотики онлайн (быстро) / How To Sell Drugs Online / Сезон: 1 / Серии: 1-6 из 6 (Арни Фельдхузен, Ларс Монтаг) [2019, драма, криминал, WEB-DL 1080p] MVO [СВ Студия] piratbit.org

Как продать наркотики онлайн через торрент piratbit.org

Раздают: 1 [ 21 KB/s ] Качают: 1 [ 0 KB/s ]
Размер: 8.33 GB | Добавлен: 8 д. назад | Торрент скачан:55 раз
Скачать  

12-06-2019 03:36 Как продать наркотики онлайн Скачать торрент  

Как продать наркотики онлайн (быстро) / How To Sell Drugs Online Год выпуска: 2019
Страна: Германия
Жанр: драма, криминал
Продолжительность: ~ 00:33:00
Перевод: Профессиональный (многоголосый) | СВ Студия
Субтитры: Английские, Английские (SDH)

Режиссер: Арни Фельдхузен, Ларс Монтаг

rating

В ролях:

Киллиан Мёрфи, Пол Андерсон, Иддо Голдберг, Хелен МакКрори, Сэм Нил, Аннабелль Уоллис, Джо Коул, Элфи Эванс-Мис, Джек Хартли, Кевин Меткалф

Описание:

Мориц расстроен: его девушка ушла к школьному драгдилеру. Единственный способ ее вернуть — стать лучше конкурента. Вместе с другом Ленни парень разворачивает наркорынок невероятных масштабов — вот на что сподвигает любовь!

Качество: WEB-DL 1080p
Формат: MKV

Видео: 1920x1080 (1.778), 25 fps, MPEG-4 AVC ~5600 kbps avg, 0.109 bit/pixel
Аудио#1: Русский, 48 kHz, AC3, 3/2 (L,C,R,l,r) + LFE ch, ~640 kbps avg |СВ Студия|
Аудио#2: Немецкий, 48 kHz, E-AC3, 3/2 (L,C,R,l,r) + LFE ch, ~640 kbps avg |Оригинал|
скриншот  скриншот  скриншот  скриншот  

Формат : Matroska
Версия формата : Version 4
Размер файла : 1,58 Гбайт
Продолжительность : 32 м. 36 с.
Общий поток : 6931 Кбит/сек
Дата кодирования : UTC 2019-06-11 18:18:57
Программа кодирования : mkvmerge v27.0.0 ('Metropolis') 32-bit
Библиотека кодирования : libebml v1.3.6 + libmatroska v1.4.9

Видео
Идентификатор : 1
Формат : HEVC
Формат/Информация : High Efficiency Video Coding
Профиль формата : Main 10@L4@Main
Идентификатор кодека : V_MPEGH/ISO/HEVC
Продолжительность : 32 м. 36 с.
Битрейт : 5649 Кбит/сек
Ширина : 1920 пикселей
Высота : 1080 пикселей
Соотношение сторон : 16:9
Режим частоты кадров : Постоянный
Частота кадров : 25,000 кадров/сек
Цветовое пространство : YUV
Субдискретизация насыщенности : 4:2:0
Битовая глубина : 10 бит
Бит/(Пиксели*Кадры) : 0.109
Размер потока : 1,29 Гбайт (81%)
Default : Да
Forced : Нет
Цветовой диапазон : Limited
Основные цвета : BT.709
Характеристики трансфера : BT.709
Коэффициенты матрицы : BT.709
SEI_rbsp_stop_one_bit : Missing

Аудио #1
Идентификатор : 2
Формат : AC-3
Формат/Информация : Audio Coding 3
Коммерческое название : Dolby Digital
Идентификатор кодека : A_AC3
Продолжительность : 32 м. 36 с.
Вид битрейта : Постоянный
Битрейт : 640 Кбит/сек
Каналы : 6 каналов
Channel layout : L R C LFE Ls Rs
Частота : 48,0 КГц
Частота кадров : 31,250 кадров/сек (1536 SPF)
Битовая глубина : 16 бит
Метод сжатия : С потерями
Размер потока : 149 Мбайт (9%)
Язык : Russian
ServiceKind/String : Complete Main
Default : Да
Forced : Нет

Аудио #2
Идентификатор : 3
Формат : E-AC-3
Формат/Информация : Enhanced AC-3
Коммерческое название : Dolby Digital Plus
Идентификатор кодека : A_EAC3
Продолжительность : 32 м. 36 с.
Вид битрейта : Постоянный
Битрейт : 640 Кбит/сек
Каналы : 6 каналов
Channel layout : L R C LFE Ls Rs
Частота : 48,0 КГц
Частота кадров : 31,250 кадров/сек (1536 SPF)
Метод сжатия : С потерями
Размер потока : 149 Мбайт (9%)
Заголовок : German
Язык : German
ServiceKind/String : Complete Main
Default : Нет
Forced : Нет

Текст #1
Идентификатор : 4
Формат : UTF-8
Идентификатор кодека : S_TEXT/UTF8
Идентификатор кодека/Информация : UTF-8 Plain Text
Продолжительность : 30 м. 56 с.
Битрейт : 72 бит/сек
ElementCount : 438
Размер потока : 16,4 Кбайт (0%)
Заголовок : English
Язык : English
Default : Нет
Forced : Нет

Текст #2
Идентификатор : 5
Формат : UTF-8
Идентификатор кодека : S_TEXT/UTF8
Идентификатор кодека/Информация : UTF-8 Plain Text
Продолжительность : 31 м. 52 с.
Битрейт : 90 бит/сек
ElementCount : 571
Размер потока : 21,1 Кбайт (0%)
Заголовок : English [SDH]
Язык : English
Default : Нет
Forced : Нет

piratbit.org



Скачать Как продать наркотики онлайн через торрент https://i110.fastpic.ru/big/2019/0611/ac/bf6eb3dc27f08b2d91f04d11dab5c2ac.jpg Скачать фильм Как продать наркотики онлайн через торрент бесплантно в хорошем качестве Описание: Мориц расстроен: его девушка ушла к школьному драгдилеру. Единственный способ ее вернуть — стать лучше конкурента. Вместе с ... 9.3 10 4
Торрент: Зарегистрирован [2019-06-12 03:36] · скачан: 55 раз
Статус: √ проверено
Размер: 8.33 GB
Как cкачать? Как скачать Как продать наркотики онлайн через торрент | qTorrent


>> Регистрируемся здесь <<






Отзывы и комментарии о схеме читаем и пишем здесь: ---> Отзывы и комментарии о схеме

Новые благодарочки в телеграм довольных пользователей:
скриншот   скриншот   скриншот   скриншот   скриншот

13-06-2019 05:24 Как продать наркотики онлайн Скачать торрент  

Сюжет-просто бомба!Баба не даёт?Так иди-торгуй наркотой,поднимешь быстренька бабла немерянного,и баба тебе отсосёт с проглотом!Лучший стартап на сегодня!Идиоты,бл.....! piratbit.org



    Дорогой пользователь! Огромная просьба, поблагодарите релизера, оцените раздачу и оставьте свои комментарий, если Вы скачали Как продать наркотики онлайн через торрент бесплатно! Внесите свою лепту в развитие PiratBit!
    Комментировать посты могут только пользователи прошедшие не сложную регистрацию
    Показать сообщения:    

    Как продать наркотики онлайн через торрент
    Скачать бесплатно Как продать наркотики онлайн
    Как продать наркотики онлайн скачать торрент
    Как продать наркотики онлайн смотреть онлайн
    Cкачать фильм Как продать наркотики онлайн бесплатно
    Как продать наркотики онлайн скачать торрент в хорошем качестве
    Как продать наркотики онлайн смотреть онлайн бесплатно в хорошем качестве


    Вы не можете начинать темы
    Вы не можете отвечать на сообщения
    Вы не можете редактировать свои сообщения
    Вы не можете удалять свои сообщения
    Вы не можете голосовать в опросах
    Вы не можете прикреплять файлы к сообщениям
    Вы можете скачивать файлы