Достать ножи: Стеклянная луковица

MVO

Добыча

Дубляж

Уэнсдэй

1 сезон

Тор

Дубляж

13 клиническая

1 сезон

Жестокая ночь

MVO

Одни из нас

1 сезон

Deluxe

pack

Рекомендуем

30

Пиратка

ВАЖНО

ВАЖНО

Ghostwire

Пиратка

jed

RePack

nioh2

RePack

RDR2

RePack

NEED FOR SPEED™ PAYBACK

RePack

скачать торрент

Кинопоиск HD

Острые козырьки 6 сезон

6 сезон

FAR CRY 6

RePack

скачать торрент

Лицензия

скачать торрент

MVO

1

1 сезон

скачать торрент

1 сезон

скачать торрент

Лицензия

  

Битва за Землю / Captive State (Руперт Уайатт) [2019, фантастика, триллер, UHD WEB-DL 2160p] 2xMVO [HDRezka, CВ Студия]

Битва за Землю через торрент piratbit.org

Размер: 19.24 GB | Добавлен: 3 года 7 мес. назад | Торрент скачан:164 раза
Смотреть онлайн | Скачать | Поддержите нас   

12-06-2019 11:15 Битва за Землю Скачать торрент  

Битва за Землю / Captive State««Это больше не наша планета»»

Год выпуска: 2019
Страна: США
Жанр: фантастика, триллер
Продолжительность: 01:49:34
Перевод: Профессиональный многоголосый
Субтитры: Русские, английские
Режиссер: Руперт Уайатт
В ролях:

Джон Гудман (William Mulligan), Вера Фармига (Jane Doe), Эштон Сандерс (Gabriel Drummond), Джонатан Мэйджерс (Rafe Drummond), Кевин Данн (Commissioner Eugene Igoe), Джеймс Рэнсон (Patrick Ellison), Алан Рак (Charles Rittenhouse), Мадлен Брюэр (Rula), Машин Ган Келли (Jurgis), Кевин Дж. О’Коннор (Kermode), Бен Дэниелс (Daniel), Кэйтлин Эвальд (Anita)
Описание:
Мы всегда знали, что не одни в этом мире. Мы отправляли сигналы в надежде получить ответ. И нас услышали. За считанные часы пришельцы захватили Землю и установили свое правительство. Сотовая связь и интернет отключены, электронные библиотеки уничтожены. Большой инопланетный брат следит за каждым, его дроны-охотники днем и ночью патрулируют улицы новой Земли. Мы - последние, те, у кого нет имени, невидимые для системы. Сегодня мы вернем нашу планету.
Рейтинг:

MPAA: PG-13 - Детям до 13 лет просмотр не желателен
Качество: UHD WEB-DL 2160p
Формат: MKV
Видео: HEVC HDR, 24.1 Mбит/с, 3840x2160, 23.976 кадр/с, 10 Бит
Аудио 1: AC3, 48.0 KHz, 2 ch, 192 Kbps | RUS (HDRezka)
Аудио 2: AC3, 48.0 KHz, 2 ch, 192 Kbps | RUS (CВ Студия)
Аудио 3: AC3, 48.0 kHz, 6 ch, 640 Kbps | ENG (Оригинал)
Навигация по главам: есть

Общее
Уникальный идентификатор : 199898319807476872031637083471945227606 (0x966304183F6DBE83AE8D290ADFAD5D56)
Полное имя : D:\Мои раздачи\Передел\Captive.State.2019.WEB-DL.HEVC.2160p.x265.10bit.HDR.Master5.mkv
Формат : Matroska
Версия формата : Version 4 / Version 2
Размер файла : 19,2 Гбайт
Продолжительность : 1 ч. 49 м.
Общий поток : 25,1 Мбит/сек
Название фильма : Captive.State.2019.WEB-DL.HEVC.2160p.x265.10bit.HDR.Master5
Дата кодирования : UTC 2019-06-12 09:05:42
Программа кодирования : mkvmerge v7.9.0 ('Birds') 64bit
Библиотека кодирования : libebml v1.3.1 + libmatroska v1.4.2

Видео
Идентификатор : 1
Формат : HEVC
Формат/Информация : High Efficiency Video Coding
Коммерческое название : HDR10
Профиль формата : Main 10@L5@High
Идентификатор кодека : V_MPEGH/ISO/HEVC
Продолжительность : 1 ч. 49 м.
Битрейт : 24,1 Мбит/сек
Ширина : 3840 пикселей
Высота : 1604 пикселя
Высота оригинала : 2160 пикселей
Соотношение сторон : 16:9
Режим частоты кадров : Постоянный
Частота кадров : 23,976 (24000/1001) кадра/сек
Цветовое пространство : YUV
Субдискретизация насыщенности : 4:2:0 (Type 2)
Битовая глубина : 10 бит
Бит/(Пиксели*Кадры) : 0.163
Размер потока : 18,5 Гбайт (96%)
Заголовок : Captive.State.2019.WEB-DL.HEVC.2160p.x265.10bit.HDR.Master5
Default : Да
Forced : Нет
Цветовой диапазон : Limited
Основные цвета : BT.2020
Характеристики трансфера : PQ
Коэффициенты матрицы : BT.2020 non-constant
MasteringDisplay_ColorPrimaries : BT.2020
MasteringDisplay_Luminance : min: 0.0050 cd/m2, max: 1000 cd/m2
MaxCLL : 294 cd/m2
MaxFALL : 64 cd/m2

Аудио #1
Идентификатор : 2
Формат : AC-3
Формат/Информация : Audio Coding 3
Идентификатор кодека : A_AC3
Продолжительность : 1 ч. 49 м.
Вид битрейта : Постоянный
Битрейт : 192 Кбит/сек
Каналы : 2 канала
Расположение каналов : Front: L R
Частота : 48,0 КГц
Частота кадров : 31,250 кадров/сек (1536 SPF)
Битовая глубина : 16 бит
Метод сжатия : С потерями
Размер потока : 150 Мбайт (1%)
Заголовок : MVO HDRezka
Язык : Russian
ServiceKind/String : Complete Main
Default : Да
Forced : Нет

Аудио #2
Идентификатор : 3
Формат : AC-3
Формат/Информация : Audio Coding 3
Идентификатор кодека : A_AC3
Продолжительность : 1 ч. 49 м.
Вид битрейта : Постоянный
Битрейт : 192 Кбит/сек
Каналы : 2 канала
Расположение каналов : Front: L R
Частота : 48,0 КГц
Частота кадров : 31,250 кадров/сек (1536 SPF)
Битовая глубина : 16 бит
Метод сжатия : С потерями
Размер потока : 150 Мбайт (1%)
Заголовок : MVO СВ Студия
Язык : Russian
ServiceKind/String : Complete Main
Default : Нет
Forced : Нет

Аудио #3
Идентификатор : 4
Формат : AC-3
Формат/Информация : Audio Coding 3
Идентификатор кодека : A_AC3
Продолжительность : 1 ч. 49 м.
Вид битрейта : Постоянный
Битрейт : 640 Кбит/сек
Каналы : 6 каналов
Расположение каналов : Front: L C R, Side: L R, LFE
Частота : 48,0 КГц
Частота кадров : 31,250 кадров/сек (1536 SPF)
Битовая глубина : 16 бит
Метод сжатия : С потерями
Размер потока : 502 Мбайт (3%)
Заголовок : Original
Язык : English
ServiceKind/String : Complete Main
Default : Нет
Forced : Нет

Текст #1
Идентификатор : 5
Формат : UTF-8
Идентификатор кодека : S_TEXT/UTF8
Идентификатор кодека/Информация : UTF-8 Plain Text
Продолжительность : 1 ч. 44 м.
Битрейт : 60 бит/сек
ElementCount : 849
Размер потока : 46,0 Кбайт (0%)
Заголовок : Full
Язык : Russian
Default : Нет
Forced : Нет

Текст #2
Идентификатор : 6
Формат : UTF-8
Идентификатор кодека : S_TEXT/UTF8
Идентификатор кодека/Информация : UTF-8 Plain Text
Продолжительность : 4 с. 375 мс.
Битрейт : 65 бит/сек
ElementCount : 1
Размер потока : 36,0 байт (0%)
Заголовок : English (Forced)
Язык : English
Default : Нет
Forced : Нет

Текст #3
Идентификатор : 7
Формат : UTF-8
Идентификатор кодека : S_TEXT/UTF8
Идентификатор кодека/Информация : UTF-8 Plain Text
Продолжительность : 1 ч. 44 м.
Битрейт : 34 бит/сек
ElementCount : 901
Размер потока : 26,3 Кбайт (0%)
Заголовок : English
Язык : English
Default : Нет
Forced : Нет

Текст #4
Идентификатор : 8
Формат : UTF-8
Идентификатор кодека : S_TEXT/UTF8
Идентификатор кодека/Информация : UTF-8 Plain Text
Продолжительность : 1 ч. 49 м.
Битрейт : 52 бит/сек
ElementCount : 1522
Размер потока : 41,9 Кбайт (0%)
Заголовок : English (SDH)
Язык : English
Default : Нет
Forced : Нет

Меню
00:00:00.000 : en:Chapter 01
00:06:25.385 : en:Chapter 02
00:12:34.545 : en:Chapter 03
00:18:45.999 : en:Chapter 04
00:24:21.376 : en:Chapter 05
00:26:55.113 : en:Chapter 06
00:32:44.504 : en:Chapter 07
00:38:27.596 : en:Chapter 08
00:43:36.864 : en:Chapter 09
00:47:17.626 : en:Chapter 10
00:52:14.464 : en:Chapter 11
01:00:01.598 : en:Chapter 12
01:06:42.373 : en:Chapter 13
01:11:29.576 : en:Chapter 14
01:15:18.222 : en:Chapter 15
01:19:40.859 : en:Chapter 16
01:23:32.048 : en:Chapter 17
01:31:46.542 : en:Chapter 18
01:38:12.011 : en:Chapter 19
01:45:00.877 : en:Chapter 20



Скачать Битва за Землю через торрент https://b.radikal.ru/b15/1906/24/5f07f7023418.png Скачать, смотреть онлайн Битва за Землю бесплантно в хорошем качестве Описание: Мы всегда знали, что не одни в этом мире. Мы отправляли сигналы в надежде получить ответ. И нас услышали. За считанные часы ... 10 10 6
Торрент: Зарегистрирован [2019-06-12 11:15] · скачан: 164 раз
Статус: √ проверено
Размер: 19.24 GB
Как cкачать? Как скачать Битва за Землю через торрент | UTorrent

% Раздел Тема Автор DL S | L
Фильмы [HD 720p, 1080p] (Хороший звук DUB, MVO) [ 11.49 GB ] Битва за Землю / Captive State | iTunes | 1080p bober100 Скачать
1 | 0
Ultra HD (UHD: 2K, 4K, 8K) [ 19.39 GB ] Битва за Землю / Captive State | iTunes | 2160p sheker187 Скачать
1 | 0
Фильмы 2019-2020 [DVDrip, WEB-DLRip, HDrip] (DUB, MVO) [ 1.41 GB ] Битва за Землю / Captive State | Лицензия | BDRip Twi7ter Скачать
5 | 0
Фильмы 2019-2020 [DVDrip, WEB-DLRip, HDrip] (DUB, MVO) [ 1.77 GB ] Битва за Землю / Captive State | iTunes | BDRip-AVC Enigma2010 Скачать
6 | 0
Фильмы 2019-2020 [DVDrip, WEB-DLRip, HDrip] (DUB, MVO) [ 710 MB ] Битва за Землю / Captive State | iTunes" | HDRip, Дубляж "iTunes" coc900 Скачать
1 | 0
Фильмы 2019-2020 [DVDrip, WEB-DLRip, HDrip] (DUB, MVO) [ 2.31 GB ] Битва за Землю / Captive State | iTunes | BDRip-AVC bober100 Скачать
1 | 0
Фильмы 2019-2020 [DVDrip, WEB-DLRip, HDrip] (DUB, MVO) [ 1.41 GB ] Битва за Землю / Captive State | iTunes | BDRip bober100 Скачать
1 | 0

28-11-2019 20:33  


Отключить вcю реклaмy на сайте, в т.ч. и в плеере онлайн просмотра!

11-07-2019 15:03 Битва за Землю Скачать торрент  

у меня одного звук вперёд бежит??



13-07-2019 00:15 Битва за Землю Скачать торрент  

И у меня бежит. Через телик не получилось посмотреть. Через media box и vidon player выставив задержку звука получилось.Может кто другие методы посоветует



16-07-2019 16:35 Битва за Землю Скачать торрент  

arslanik писал(а):

И у меня бежит. Через телик не получилось посмотреть. Через media box и vidon player выставив задержку звука получилось.Может кто другие методы посоветует

Я просто другой скачал торрент на 30 гб проблема решилась



    Дорогой пользователь! Огромная просьба, поблагодарите релизера, оцените раздачу и оставьте свои комментарий, если Вы скачали Битва за Землю через торрент бесплатно!!
    Комментировать посты могут только пользователи прошедшие не сложную регистрацию
    Показать сообщения:    


    Битва за Землю через торрент
    Скачать бесплатно Битва за Землю
    Битва за Землю скачать торрент
    Битва за Землю смотреть онлайн
    Cкачать фильм Битва за Землю бесплатно
    Битва за Землю скачать торрент в хорошем качестве
    Битва за Землю смотреть онлайн бесплатно в хорошем качестве
    Вы не можете начинать темы
    Вы не можете отвечать на сообщения
    Вы не можете редактировать свои сообщения
    Вы не можете удалять свои сообщения
    Вы не можете голосовать в опросах
    Вы не можете прикреплять файлы к сообщениям
    Вы можете скачивать файлы
    Битва за Землю / Captive State [2019, фантастика, триллер, UHD WEB-DL 2160p] 2xMVO [HDRezka, CВ Студия] смотреть онлайн, скачать торрент picoco.icu