Достать ножи: Стеклянная луковица

MVO

Добыча

Дубляж

Уэнсдэй

1 сезон

Тор

Дубляж

13 клиническая

1 сезон

Жестокая ночь

MVO

Одни из нас

1 сезон

Deluxe

pack

Рекомендуем

30

Пиратка

ВАЖНО

ВАЖНО

Ghostwire

Пиратка

jed

RePack

nioh2

RePack

RDR2

RePack

NEED FOR SPEED™ PAYBACK

RePack

скачать торрент

Кинопоиск HD

Острые козырьки 6 сезон

6 сезон

FAR CRY 6

RePack

скачать торрент

Лицензия

скачать торрент

MVO

1

1 сезон

скачать торрент

1 сезон

скачать торрент

Лицензия

  

Последствия / The Aftermath (Джеймс Кент) [2019, драма, мелодрама, военный, UHD WEB-DL 2160p] [SDR] Дубляж (rus, ukr) [iTunes]

Последствия через торрент piratbit.org

Размер: 19.56 GB | Добавлен: 3 года 7 мес. назад | Торрент скачан:20 раз
Смотреть онлайн | Скачать | Поддержите нас   

14-06-2019 07:13 Последствия Скачать торрент  

Последствия / The Aftermath
Год выпуска: 2019
Страна: Великобритания, Германия, США
Жанр: драма, мелодрама, военный
Продолжительность: 01:49:15
Перевод: Дублированный | iTunes
Субтитры: Русские (forced, full), украинские (forced, full), английские

Режиссер: Джеймс Кент

rating

В ролях:

Кира Найтли, Александр Скарсгард, Джейсон Кларк, Фионн О’Ши, Кейт Филлипс, Мартин Компстон, Александр Шеер, Анна Катарина Шримригк, Нед Виллс, Пандора Колин

Описание:

Германия после Второй мировой войны. В стране беспорядок, разруха, голод. Главный герой - британский военный Льюис Морган, который назначен временным мэром Гамбурга. Ему предстоит восстанавливать город почти с нуля. Вместе с женой Льюис селится в роскошный особняк, где живет немецкий архитектор с эмоционально нестабильной дочерью. Смогут ли бывшие враги ужиться под одной крышей или желание отомстить будет сильнее?

Качество: UHD WEB-DL 2160p
Формат: MKV

Видео: 3840x2160 at 23.976 fps, MPEG-H HEVC SDR Video, 24600 kbps avg
Аудио#1: 48 kHz, AC3, 5.1, 384 Kbps | iTunes | RUS |
Аудио#2: 48 kHz, AAC, 2.0, 123 Kbps | iTunes | UKR |
Аудио#3: 48 kHz, E-AC3, 5.1, 640 Kbps | Оригинал | ENG |
скриншот  скриншот  скриншот  скриншот  скриншот  

General
Unique ID : 300524162549919831499884481293951519922 (0xE216D92E8F04587B1EDD7DA8E8C14CB2)
Complete name : D:Video111The.Aftermath.2019.WEB-DL.2160p.SDR.seleZen.mkv
Format : Matroska
Format version : Version 4
File size : 19.6 GiB
Duration : 1 h 48 min
Overall bit rate : 25.8 Mb/s
Movie name : The Aftermath 2019 from селезень
Encoded date : UTC 2019-06-14 07:01:50
Writing application : mkvmerge v33.1.0 ('Primrose') 64-bit
Writing library : libebml v1.3.7 + libmatroska v1.5.0

Video
ID : 1
Format : HEVC
Format/Info : High Efficiency Video Coding
Format profile : Main 10@L5@High
Codec ID : V_MPEGH/ISO/HEVC
Duration : 1 h 48 min
Bit rate : 24.6 Mb/s
Width : 3 840 pixels
Height : 2 076 pixels
Original height : 2 160 pixels
Display aspect ratio : 16:9
Frame rate mode : Constant
Frame rate : 23.976 (24000/1001) FPS
Color space : YUV
Chroma subsampling : 4:2:0 (Type 2)
Bit depth : 10 bits
Bits/(Pixel*Frame) : 0.129
Stream size : 18.7 GiB (96%)
Language : English
Default : Yes
Forced : No
Color range : Limited
Color primaries : BT.709
Transfer characteristics : BT.709
Matrix coefficients : BT.709

Audio #1
ID : 2
Format : AC-3
Format/Info : Audio Coding 3
Commercial name : Dolby Digital
Codec ID : A_AC3
Duration : 1 h 48 min
Bit rate mode : Constant
Bit rate : 384 kb/s
Channel(s) : 6 channels
Channel layout : L R C LFE Ls Rs
Sampling rate : 48.0 kHz
Frame rate : 31.250 FPS (1536 SPF)
Bit depth : 16 bits
Compression mode : Lossy
Stream size : 298 MiB (1%)
Title : iTunes
Language : Russian
Service kind : Complete Main
Default : Yes
Forced : Yes

Audio #2
ID : 3
Format : AAC LC
Format/Info : Advanced Audio Codec Low Complexity
Codec ID : A_AAC-2
Duration : 1 h 48 min
Bit rate : 123 kb/s
Channel(s) : 2 channels
Channel layout : L R
Sampling rate : 44.1 kHz
Frame rate : 43.066 FPS (1024 SPF)
Compression mode : Lossy
Stream size : 95.9 MiB (0%)
Title : iTunes
Language : Ukrainian
Default : No
Forced : No

Audio #3
ID : 4
Format : E-AC-3
Format/Info : Enhanced AC-3
Commercial name : Dolby Digital Plus
Codec ID : A_EAC3
Duration : 1 h 48 min
Bit rate mode : Constant
Bit rate : 640 kb/s
Channel(s) : 6 channels
Channel layout : L R C LFE Ls Rs
Sampling rate : 48.0 kHz
Frame rate : 31.250 FPS (1536 SPF)
Compression mode : Lossy
Stream size : 497 MiB (2%)
Title : Original
Language : English
Service kind : Complete Main
Default : No
Forced : No

Text #1
ID : 5
Format : UTF-8
Codec ID : S_TEXT/UTF8
Codec ID/Info : UTF-8 Plain Text
Duration : 1 h 42 min
Bit rate : 3 b/s
Count of elements : 80
Stream size : 2.74 KiB (0%)
Title : Forced
Language : Russian
Default : Yes
Forced : Yes

Text #2
ID : 6
Format : UTF-8
Codec ID : S_TEXT/UTF8
Codec ID/Info : UTF-8 Plain Text
Duration : 1 h 47 min
Bit rate : 44 b/s
Count of elements : 837
Stream size : 35.0 KiB (0%)
Title : Full
Language : Russian
Default : No
Forced : No

Text #3
ID : 7
Format : UTF-8
Codec ID : S_TEXT/UTF8
Codec ID/Info : UTF-8 Plain Text
Duration : 1 h 31 min
Bit rate : 3 b/s
Count of elements : 75
Stream size : 2.46 KiB (0%)
Title : Forced
Language : Ukrainian
Default : No
Forced : No

Text #4
ID : 8
Format : UTF-8
Codec ID : S_TEXT/UTF8
Codec ID/Info : UTF-8 Plain Text
Duration : 1 h 47 min
Bit rate : 92 b/s
Count of elements : 835
Stream size : 72.5 KiB (0%)
Title : Full
Language : Ukrainian
Default : No
Forced : No

Text #5
ID : 9
Format : UTF-8
Codec ID : S_TEXT/UTF8
Codec ID/Info : UTF-8 Plain Text
Duration : 1 h 39 min
Bit rate : 31 b/s
Count of elements : 949
Stream size : 22.8 KiB (0%)
Title : Full
Language : English
Default : No
Forced : No

Menu
00:00:00.000 : en:Chapter 01
00:03:59.197 : en:Chapter 02
00:10:36.385 : en:Chapter 03
00:14:20.150 : en:Chapter 04
00:17:50.777 : en:Chapter 05
00:22:39.524 : en:Chapter 06
00:27:49.876 : en:Chapter 07
00:35:08.522 : en:Chapter 08
00:37:10.018 : en:Chapter 09
00:41:32.070 : en:Chapter 10
00:46:28.073 : en:Chapter 11
00:49:58.866 : en:Chapter 12
00:56:02.688 : en:Chapter 13
01:02:04.673 : en:Chapter 14
01:04:48.627 : en:Chapter 15
01:09:00.252 : en:Chapter 16
01:15:58.294 : en:Chapter 17
01:19:47.022 : en:Chapter 18
01:22:08.037 : en:Chapter 19
01:27:00.495 : en:Chapter 20
01:29:35.774 : en:Chapter 21
01:33:38.600 : en:Chapter 22
01:39:15.018 : en:Chapter 23
01:42:46.854 : en:Chapter 24




Скачать Последствия через торрент http://img15.lostpic.net/2019/06/14/e914bbcbc616f677ea76503dc97ef8af.jpg Скачать, смотреть онлайн Последствия бесплантно в хорошем качестве Описание: Германия после Второй мировой войны. В стране беспорядок, разруха, голод. Главный герой - британский военный Льюис Морган, ... 10 10 2
Торрент: Зарегистрирован [2019-06-14 07:13] · скачан: 20 раз
Статус: √ проверено
Размер: 19.56 GB
Как cкачать? Как скачать Последствия через торрент | UTorrent

% Раздел Тема Автор DL S | L
Фильмы 2019-2020 [DVDrip, WEB-DLRip, HDrip] (DUB, MVO) [ 2.18 GB ] Последствия / The Aftermath | Лицензия | BDRip Enigma2010 Скачать
6 | 0
Фильмы 2019-2020 [DVDrip, WEB-DLRip, HDrip] (DUB, MVO) [ 1.46 GB ] Последствия / The Aftermath | Лицензия | BDRip Twi7ter Скачать
8 | 0
Фильмы 2019-2020 [DVDrip, WEB-DLRip, HDrip] (DUB, MVO) [ 2.25 GB ] Последствия / The Aftermath | Лицензия | BDRip-AVC bober100 Скачать
1 | 0
Фильмы (Blu-ray, BD-Remux, HDDVD) [ 37.23 GB ] Последствия / The Aftermath | Лицензия | 1080p bober100 Скачать
1 | 0
Фильмы [HD 720p, 1080p] (Хороший звук DUB, MVO) [ 5.92 GB ] Последствия / The Aftermath | Лицензия | 720p bober100 Скачать
1 | 0
Фильмы [HD 720p, 1080p] (Хороший звук DUB, MVO) [ 12.59 GB ] Последствия / The Aftermath | Лицензия | 1080p bober100 Скачать
1 | 0
Фильмы (Blu-ray, BD-Remux, HDDVD) [ 26.23 GB ] Последствия / The Aftermath | Лицензия | BD Remux 1080p bober100 Скачать
1 | 0

28-11-2019 20:33  


Отключить вcю реклaмy на сайте, в т.ч. и в плеере онлайн просмотра!

    Дорогой пользователь! Огромная просьба, поблагодарите релизера, оцените раздачу и оставьте свои комментарий, если Вы скачали Последствия через торрент бесплатно!!
    Комментировать посты могут только пользователи прошедшие не сложную регистрацию
    Показать сообщения:    


    Последствия через торрент
    Скачать бесплатно Последствия
    Последствия скачать торрент
    Последствия смотреть онлайн
    Cкачать фильм Последствия бесплатно
    Последствия скачать торрент в хорошем качестве
    Последствия смотреть онлайн бесплатно в хорошем качестве
    Вы не можете начинать темы
    Вы не можете отвечать на сообщения
    Вы не можете редактировать свои сообщения
    Вы не можете удалять свои сообщения
    Вы не можете голосовать в опросах
    Вы не можете прикреплять файлы к сообщениям
    Вы можете скачивать файлы
    Последствия / The Aftermath [2019, драма, мелодрама, военный, UHD WEB-DL 2160p] [SDR] Дубляж [iTunes] смотреть онлайн, скачать торрент picoco.icu