MEGA SALE -50% FORZA HORIZON 4 ULTIMATE+ВСЕ DLC+ОНЛАЙН всего за 599р. 299 руб. (супер цена). Внимание количество ограничено!!!

iTunes

1+1

iTunes

мы

iTunes

1

iTunes

Чернобыль

iTunes

Ральф против интернета

Лицензия

ПШазам

Лицензия

Игра престолов

Лицензия

30
pack

ВАЖНО

!!Акция!!

Alien_RageХит недели

RePack

Resident Evil 21

ИГРА 18+

pack

RePack

Metro:Exodus

!!Акция!!

Alien_Rage

RePack

fifa19

RePack

Assassins Creed: Odyssey

RePack

NEED FOR SPEED™ PAYBACK

3 сезон

9 сезон

Бесстыжие 9 сезон

Все сериалы

все сериалы на PB.wtf

RePack

FAR CRY 5
Ребята, катастрофически не хватает 7730р. для оплаты серверов за АВГУСТ (всвязи с блокировками трафик упал в 3 раза), 1-2р., выручайте.
  

Мы / Us (Джордан Пил) [2019, ужасы, триллер, BD Remux 1080p] DUB [Лицензия] piratbit.org

Мы через торрент piratbit.org

Размер: 27.34 GB | Добавлен: 1 мес. 25 д. назад | Торрент скачан:9 раз
Скачать  

14-06-2019 15:08 Мы Скачать торрент  

Мы / Us
Год выпуска: 2019
Страна: США, Япония, Китай
Жанр: ужасы, триллер
Продолжительность: 01:56:28
Перевод: Дублированный | Лицензия
Субтитры: Русские (Forced, 2 x full), английские

Режиссер: Джордан Пил

rating

В ролях:

Лупита Нионго (Adelaide Wilson / Red), Уинстон Дьюк (Gabe Wilson / Abraham), Элизабет Мосс (Kitty Tyler / Dahlia), Тим Хайдекер (Josh Tyler / Tex), Шахади Райт Джозеф (Zora Wilson / Umbrae), Ивэн Алекс (Jason Wilson / Pluto), Яхья Абдул-Матин II (Russel Thomas / Weyland), Анна Диоп (Rayne Thomas / Eartha), Кали Шелдон (Becca Tyler / Io), Ноэль Шелдон (Lindsey Tyler / Nix), Мэдисон Карри (Young Adelaide Wilson / Young Red), Эшли Маккой (Teenage Adelaide Wilson / Teenage Red)
Описание:

Будучи маленькой девочкой, Аделаида пережила травмирующее событие. В парке развлечений на побережье она отошла от родителей и забрела в зеркальный лабиринт, где встретила свою точную копию. Через много лет, уже с мужем и детьми, Аделаида приезжает в дом бабушки, который находится рядом с тем самым злосчастным парком, и с самого начала женщина чувствует себя не в своей тарелке. Муж считает, что в таком прекрасном месте нужно расслабляться, а не нервничать, но его мнение быстро меняется, когда перед домом появляются незнакомцы в красных комбинезонах с явно агрессивными намерениями.

Качество: BD Remux 1080p
Формат: MKV

Видео: MPEG-4 AVC, 1920x1080, 29.3 Mbit/s, 23.976 fps
Аудио#1: 48 kHz, AC3, 5.1, 640 Kbps | Лицензия | RUS |
Аудио#2: 48 kHz, TrueHD, 7.1, 3177 Kbps | Оригинал | ENG |
Аудио#3: 48 kHz, AC3, 5.1, 448 Kbps | Оригинал | ENG |
скриншот  скриншот  скриншот  скриншот  скриншот  

General
Unique ID : 122513477649022440720696908260154101659 (0x5C2B3CCE14680C22850BB0B371C54F9B)
Complete name : D:Video111Us.2019.Lic.BDREMUX.1080p.seleZen.mkv
Format : Matroska
Format version : Version 4
File size : 27.3 GiB
Duration : 1 h 56 min
Overall bit rate mode : Variable
Overall bit rate : 33.6 Mb/s
Movie name : Us 2019 from селезень
Encoded date : UTC 2019-07-26 02:07:55
Writing application : mkvmerge v22.0.0 ('At The End Of The World') 64-bit
Writing library : libebml v1.3.5 + libmatroska v1.4.8

Video
ID : 1
Format : AVC
Format/Info : Advanced Video Codec
Format profile : High@L4.1
Format settings : CABAC / 4 Ref Frames
Format settings, CABAC : Yes
Format settings, Reference : 4 frames
Codec ID : V_MPEG4/ISO/AVC
Duration : 1 h 56 min
Bit rate mode : Variable
Bit rate : 29.3 Mb/s
Maximum bit rate : 32.7 Mb/s
Width : 1 920 pixels
Height : 1 080 pixels
Display aspect ratio : 16:9
Frame rate mode : Constant
Frame rate : 23.976 (24000/1001) FPS
Color space : YUV
Chroma subsampling : 4:2:0
Bit depth : 8 bits
Scan type : Progressive
Bits/(Pixel*Frame) : 0.589
Stream size : 23.8 GiB (87%)
Language : English
Default : Yes
Forced : No

Audio #1
ID : 2
Format : AC-3
Format/Info : Audio Coding 3
Commercial name : Dolby Digital
Codec ID : A_AC3
Duration : 1 h 56 min
Bit rate mode : Constant
Bit rate : 640 kb/s
Channel(s) : 6 channels
Channel layout : L R C LFE Ls Rs
Sampling rate : 48.0 kHz
Frame rate : 31.250 FPS (1536 SPF)
Bit depth : 16 bits
Compression mode : Lossy
Stream size : 533 MiB (2%)
Title : Dub [License]
Language : Russian
Service kind : Complete Main
Default : Yes
Forced : Yes

Audio #2
ID : 3
Format : MLP FBA 16-ch
Format/Info : Meridian Lossless Packing FBA with 16-channel presentation
Commercial name : Dolby TrueHD with Dolby Atmos
Codec ID : A_TRUEHD
Duration : 1 h 56 min
Bit rate mode : Variable
Bit rate : 3 177 kb/s
Maximum bit rate : 4 872 kb/s
Channel(s) : 8 channels
Channel layout : L R C LFE Ls Rs Lb Rb
Sampling rate : 48.0 kHz
Frame rate : 1 200.000 FPS (40 SPF)
Compression mode : Lossless
Stream size : 2.58 GiB (9%)
Title : Original
Language : English
Default : No
Forced : No
Number of dynamic objects : 11
Bed channel count : 1 channel
Bed channel configuration : LFE

Audio #3
ID : 4
Format : AC-3
Format/Info : Audio Coding 3
Commercial name : Dolby Digital
Codec ID : A_AC3
Duration : 1 h 56 min
Bit rate mode : Constant
Bit rate : 448 kb/s
Channel(s) : 6 channels
Channel layout : L R C LFE Ls Rs
Sampling rate : 48.0 kHz
Frame rate : 31.250 FPS (1536 SPF)
Bit depth : 16 bits
Compression mode : Lossy
Stream size : 373 MiB (1%)
Language : English
Service kind : Complete Main
Default : No
Forced : No

Text #1
ID : 5
Format : UTF-8
Codec ID : S_TEXT/UTF8
Codec ID/Info : UTF-8 Plain Text
Duration : 1 h 55 min
Bit rate : 0 b/s
Count of elements : 10
Stream size : 465 Bytes (0%)
Title : Forced [License]
Language : Russian
Default : Yes
Forced : Yes

Text #2
ID : 6
Format : UTF-8
Codec ID : S_TEXT/UTF8
Codec ID/Info : UTF-8 Plain Text
Duration : 1 h 55 min
Bit rate : 50 b/s
Count of elements : 931
Stream size : 42.4 KiB (0%)
Title : Full [License]
Language : Russian
Default : No
Forced : No

Text #3
ID : 7
Format : UTF-8
Codec ID : S_TEXT/UTF8
Codec ID/Info : UTF-8 Plain Text
Duration : 1 h 49 min
Bit rate : 53 b/s
Count of elements : 1007
Stream size : 43.0 KiB (0%)
Title : Full [Focs]
Language : Russian
Default : No
Forced : No

Text #4
ID : 8
Format : UTF-8
Codec ID : S_TEXT/UTF8
Codec ID/Info : UTF-8 Plain Text
Duration : 1 h 49 min
Bit rate : 35 b/s
Count of elements : 1038
Stream size : 28.6 KiB (0%)
Title : Full
Language : English
Default : No
Forced : No

Menu
00:00:00.000 : en:Chapter 01
00:06:05.156 : en:Chapter 02
00:11:25.351 : en:Chapter 03
00:17:12.114 : en:Chapter 04
00:23:24.653 : en:Chapter 05
00:29:31.520 : en:Chapter 06
00:36:07.791 : en:Chapter 07
00:41:07.757 : en:Chapter 08
00:48:08.302 : en:Chapter 09
00:55:43.257 : en:Chapter 10
01:03:00.318 : en:Chapter 11
01:07:49.357 : en:Chapter 12
01:14:25.294 : en:Chapter 13
01:20:12.016 : en:Chapter 14
01:25:25.954 : en:Chapter 15
01:29:44.045 : en:Chapter 16
01:35:21.674 : en:Chapter 17
01:40:54.548 : en:Chapter 18
01:47:36.909 : en:Chapter 19
01:52:14.394 : en:Chapter 20

piratbit.org



Скачать Мы через торрент http://img16.lostpic.net/2019/06/11/7d18c03b242bdeb79b317b68e37bd4f4.jpg Скачать фильм Мы через торрент бесплантно в хорошем качестве Описание: Будучи маленькой девочкой, Аделаида пережила травмирующее событие. В парке развлечений на побережье она отошла от родителей и ... 8.6 10 5
Торрент: Зарегистрирован [2019-07-26 02:15] · скачан: 9 раз
Статус: √ проверено
Размер: 27.34 GB
Как cкачать? Как скачать Мы через торрент | qTorrent

% Раздел Тема Автор DL S | L
Порно фильмы без сюжета [ 1.52 GB ] Самые Горячие Оргии / Das geilste aus Orgien [2010 Group Sex All Sex Fisting Lesbian Gang Bang Double Penetration. DVDRip] Pir@tya2010 Скачать
1 | 0
Eurodance, Technopop, Disco (lossless) [ 1.86 GB ] Dr. Alban Студийные альбомы - 5CD [FLAC lossless] tauras Скачать
1 | 0
Фильмы 2012 [ 1.46 GB ] Люди как мы / People Like Us [2012 BDRip] MVO Ворон Скачать
2 | 0
Иностранные мультфильмы [ 702 MB ] Смывайся / Flushed Away [2006 мультфильм HDRip] DUB shuller Скачать
1 | 0
Видеоуроки [ 952 MB ] Василий Ульянов / Умный Пресс Тренинг : как легко сжечь жир и заставить мышцы живота расти! [2010 Фитнесс DVDRip RUS] BelkaVV Скачать
2 | 0
BBC [ 703 MB ] Действительно ли алкоголь хуже чем экстази? / Is alcohol worse than ecstasy? [2008 Документальный SATRip] Anonymous Скачать
2 | 0
Аниме [HD 720p, 1080p] [ 3.28 GB ] Князь тьмы с задней парты / Ichiban Ushiro no Daimaou [2010 этти HDTVRip ] Futura 202 Скачать
1 | 0


>> Регистрируемся здесь <<






Отзывы и комментарии о схеме читаем и пишем здесь: ---> Отзывы и комментарии о схеме

Новые благодарочки в телеграм довольных пользователей:
скриншот   скриншот   скриншот   скриншот   скриншот
    Дорогой пользователь! Огромная просьба, поблагодарите релизера, оцените раздачу и оставьте свои комментарий, если Вы скачали Мы через торрент бесплатно! Внесите свою лепту в развитие PiratBit!
    Комментировать посты могут только пользователи прошедшие не сложную регистрацию
    Показать сообщения:    

    Мы через торрент
    Скачать бесплатно Мы
    Мы скачать торрент
    Мы смотреть онлайн
    Cкачать фильм Мы бесплатно
    Мы скачать торрент в хорошем качестве
    Мы смотреть онлайн бесплатно в хорошем качестве


    Вы не можете начинать темы
    Вы не можете отвечать на сообщения
    Вы не можете редактировать свои сообщения
    Вы не можете удалять свои сообщения
    Вы не можете голосовать в опросах
    Вы не можете прикреплять файлы к сообщениям
    Вы можете скачивать файлы