MEGA SALE -50% FORZA HORIZON 4 ULTIMATE+ВСЕ DLC+ОНЛАЙН всего за 599р. 299 руб. (супер цена). Внимание количество ограничено!!!

iTunes

1+1

iTunes

мы

iTunes

1

iTunes

Чернобыль

iTunes

Ральф против интернета

Лицензия

ПШазам

Лицензия

Игра престолов

Лицензия

30
pack

ВАЖНО

!!Акция!!

Alien_RageХит недели

RePack

Resident Evil 21

ИГРА 18+

pack

RePack

Metro:Exodus

!!Акция!!

Alien_Rage

RePack

fifa19

RePack

Assassins Creed: Odyssey

RePack

NEED FOR SPEED™ PAYBACK

3 сезон

9 сезон

Бесстыжие 9 сезон

Все сериалы

все сериалы на PB.wtf

RePack

FAR CRY 5
Ребята, катастрофически не хватает 7730р. для оплаты серверов за АВГУСТ (всвязи с блокировками трафик упал в 3 раза), 1-2р., выручайте.
  

Болотная тварь / Swamp Thing / Сезон: 1 / Серии: 1-10 из 10 (Лен Уайзман, Кэрол Бенкер, Тоа Фрейзер) [2019, Ужасы, фантастика, фэнтези, боевик, драма, WEBRip] MVO [Octopus] piratbit.org

Болотная тварь через торрент piratbit.org

Раздают: 1 [ 0 KB/s ]
Размер: 7.08 GB | Добавлен: 1 мес. 17 д. назад | Торрент скачан:51 раз
Скачать  

14-06-2019 20:38 Болотная тварь Скачать торрент  

Болотная тварь / Swamp Thing
Год выпуска: 2019
Страна: США
Жанр: Ужасы, фантастика, фэнтези, боевик, драма
Продолжительность: ~ 01:00:00
Перевод: Любительский (многоголосый) | Octopus
Субтитры: отсутствуют

Режиссер: Лен Уайзман, Кэрол Бенкер, Тоа Фрейзер

rating

В ролях:

Кристал Рид, Энди Бин, Дерек Мирс, Хендерсон Вэйд, Дженнифер Билз, Вирджиния Мэдсен, Уилл Пэттон, Мария Стэн, Селена Андусе, Кевин Дюран и др.

Описание:

Микробиолог Эбби Аркейн возвращается в родной город — здесь разбушевался смертельный вирус, который необходимо изучить и нейтрализовать. Она знакомится с коллегой Алеком Холландом, их совместная работа стремительно перерастает в романтические отношения, но на всем этом ставит точку несчастный случай на болоте, в результате которого Алек погибает. Убитая горем Эбби еще не знает, что ее ждет новая встреча с возлюбленным, который теперь превратился в человекообразное растение с супергеройскими способностями.

Качество: WEBRip
Формат: AVI

Видео: XviD, ~ 2 100 Кбит/с, 720x304
Аудио: Русский, (AC3, 2 ch, 384 Кбит/с)
скриншот  скриншот  скриншот  

Общее
Полное имя : D:\Swamp.Thing.S01.400p.Octopus\Swamp.Thing.S01E01.400p.Octopus.avi
Формат : AVI
Формат/Информация : Audio Video Interleave
Размер файла : 1,03 Гбайт
Продолжительность : 1 ч. 0 м.
Общий поток : 2441 Кбит/сек
Программа кодирования : VirtualDubMod 1.5.10.2 (build 2540/release)
Библиотека кодирования : VirtualDubMod build 2540/release

Видео
Идентификатор : 0
Формат : MPEG-4 Visual
Профиль формата : Advanced Simple@L5
Параметр BVOP формата : 2
Параметр QPel формата : Нет
Параметр GMC формата : Без точки перехода
Параметр матрицы формата : Default (MPEG)
Идентификатор кодека : XVID
Идентификатор кодека/Подсказка : XviD
Продолжительность : 1 ч. 0 м.
Битрейт : 2048 Кбит/сек
Ширина : 720 пикселей
Высота : 304 пикселя
Соотношение сторон : 2,35:1
Частота кадров : 23,976 (24000/1001) кадра/сек
Цветовое пространство : YUV
Субдискретизация насыщенности : 4:2:0
Битовая глубина : 8 бит
Тип развёртки : Прогрессивная
Метод сжатия : С потерями
Бит/(Пиксели*Кадры) : 0.390
Размер потока : 882 Мбайт (84%)
Библиотека кодирования : XviD 1.2.1 (UTC 2008-12-04)

Аудио
Идентификатор : 1
Формат : AC-3
Формат/Информация : Audio Coding 3
Расширение режима : CM (complete main)
Параметр Endianness формата : Big
Идентификатор кодека : 2000
Продолжительность : 1 ч. 0 м.
Вид битрейта : Постоянный
Битрейт : 384 Кбит/сек
Каналы : 2 канала
Расположение каналов : Front: L R
Частота : 48,0 КГц
Частота кадров : 31,250 кадров/сек (1536 spf)
Метод сжатия : С потерями
Размер потока : 165 Мбайт (16%)
Выравнивание : Разделение по промежуткам
Продолжительность промежутка : 42 мс. (1,00 видеокадр)
Время предзагрузки промежутка : 500 мс.

Когда раздача ведётся путём добавления новых серий, при каждом добавлении создётся новый торрент. Чтобы начать докачку новой серии, пользователям необходимо сделать следующее:
(1) остановить скачивание,
(2) удалить старый торрент у себя из клиента (старые серии удалять не надо),
(3) скачать новый торрент и запустить его у себя в клиенте вместо старого, при этом указать клиенту путь в старую папку, куда и должно происходить скачивание новых серий.
Ваш клиент при этом должен произвести хеширование (проверку) старой папки (если не производит сам - помогите ему сделать это), и будет докачивать только те серии, которых у вас ещё нет. Старые серии при этом не удаляются, а продолжают раздаваться!
Eсли вы уже удалили старые серии, то предотвратить повторную закачку старых серий можно, отжав галочку в соответсвующих местах при запуске нового торрента. По возможности, желательно не удалять старые серии как можно дольше, чтобы релизёр не столько продолжал раздавать старые серии, а смог сконцентрироваться на новых.
piratbit.org



Скачать Болотная тварь через торрент https://c.radikal.ru/c09/1905/b7/9abc991586d2.jpg Скачать фильм Болотная тварь через торрент бесплантно в хорошем качестве Описание: Микробиолог Эбби Аркейн возвращается в родной город — здесь разбушевался смертельный вирус, который необходимо изучить и ... 10 10 9
Торрент: Зарегистрирован [2019-08-03 03:15] · скачан: 51 раз
Статус: T временная
Размер: 7.08 GB
Как cкачать? Как скачать Болотная тварь через торрент | qTorrent

% Раздел Тема Автор DL S | L
Зарубежные сериалы [ 5.97 GB ] Болотная тварь / Swamp Thing / Сезон: 1 / Серии: 1-10 из 10 [2019 WEB-DLRip] MVO [LostFilm] bober100 Скачать
15 | 0
Зарубежные сериалы [ 6.32 GB ] Болотная тварь / Swamp Thing / Сезон: 1 / Серии: 1-10 из 10 [2019 WEB-DLRip] MVO [NewStudio] bober100 Скачать
8 | 0
Зарубежные сериалы [ 5.97 GB ] Болотная тварь / Swamp Thing / Сезон: 1 / Серии: 1-10 из 10 [2019 . WEB-DLRip] killermax2013 Скачать
2 | 0
Зарубежные сериалы [ 38.54 GB ] Болотная тварь / Swamp Thing / Сезон: 1 / Серии: 1-10 из 10 [2019 UHD WEB-DL 2160p] [SDR] 2xMVO [TVShows LostFilm] sheker187 Скачать
6 | 1
Зарубежные сериалы [ 28.14 GB ] Болотная тварь / Swamp Thing / Сезон: 1 / Серии: 1-10 из 10 [2019 WEB-DL 1080p] MVO [TVShows] bober100 Скачать
2 | 0
Зарубежные сериалы [ 8.16 GB ] Болотная тварь / Swamp Thing / Сезон: 1 / Серии: 1-10 из 10 [2019 WEB-DLRip] MVO [TVShows] bober100 Скачать
2 | 0
Зарубежные сериалы [ 6.82 GB ] Болотная тварь / Swamp Thing / Сезон: 1 / Серии: 1-10 из 10 [2019 . WEB-DLRip] MVO [AlexFilm] bober100 Скачать
1 | 1


>> Регистрируемся здесь <<






Отзывы и комментарии о схеме читаем и пишем здесь: ---> Отзывы и комментарии о схеме

Новые благодарочки в телеграм довольных пользователей:
скриншот   скриншот   скриншот   скриншот   скриншот

05-08-2019 10:44 Болотная тварь Скачать торрент  

Топик был перенесен из форума Зарубежные сериалы в форум Для поглощённых раздач


bober100piratbit.org



    Дорогой пользователь! Огромная просьба, поблагодарите релизера, оцените раздачу и оставьте свои комментарий, если Вы скачали Болотная тварь через торрент бесплатно! Внесите свою лепту в развитие PiratBit!
    Комментировать посты могут только пользователи прошедшие не сложную регистрацию
    Показать сообщения:    

    Болотная тварь через торрент
    Скачать бесплатно Болотная тварь
    Болотная тварь скачать торрент
    Болотная тварь смотреть онлайн
    Cкачать фильм Болотная тварь бесплатно
    Болотная тварь скачать торрент в хорошем качестве
    Болотная тварь смотреть онлайн бесплатно в хорошем качестве


    Вы не можете начинать темы
    Вы не можете отвечать на сообщения
    Вы не можете редактировать свои сообщения
    Вы не можете удалять свои сообщения
    Вы не можете голосовать в опросах
    Вы не можете прикреплять файлы к сообщениям
    Вы можете скачивать файлы