Лицензия

MVO

1

1 сезон

Лицензия

Лицензия

13

MVO

1 сезон

Deluxe Edition

pack

Рекомендуем

30

Repack

ВАЖНО

ВАЖНО

Ghostwire

RePack

jed

RePack

fifa19

RePack

RDR2

RePack

NEED FOR SPEED™ PAYBACK

RePack

Кинопоиск HD

 Острые козырьки 6 сезон

6 сезон

FAR CRY 6

RePack

Лицензия

MVO

1

1 сезон

1 сезон

Лицензия

  

Пятеро из Ферганы (Юлдаш Агзамов) [1963, СССР, история, VHSRip от AVP Studio]

Пятеро из Ферганы через торрент piratbit.org

Размер: 745 MB | Добавлен: 3 года 3 мес. назад | Торрент скачан:14 раз
Смотреть онлайн Пятеро из Ферганы | Скачать   

15-06-2019 09:25 Пятеро из Ферганы Скачать торрент  

Пятеро из Ферганы
Страна: СССР
Производство: Узбекфильм

Жанр: история
Год выпуска: 1963
Продолжительность: 01:11:24

Перевод: Не требуется
Cубтитры: нет
Оригинальная аудиодорожка: русский

Режиссер: Юлдаш Агзамов

В ролях:
Дмитрий Масанов, Ульмас Алиходжаев, Халида Исхакова, Алла Ледовая, Бако Садыков, Вячеслав Кимбарович, Михаил Орлов, Нигмат Касымов, Аббас Бакиров, Обид Джалилов...
Об актёрах подробней

Описание:
Киноповесть о первом комсомольском секретаре Туркестана - Абдулле Набиеве....

Исходник: VHS
Качество видео: VHSRip
Формат видео: AVI

Видео: 704x528 (4:3), 25,000 кадров/сек, XviD ~ 1258 kbps avg, 0.135 bit/pixel
Аудио: 48 kHz, Dolby Digital AC3 2.0, 192 kbps

Раздача от:
Общее
Полное имя : Pyatero.iz.Fergany.1963.VHSRip_[New-team]_by_AVP_Studio.avi
Формат : AVI
Формат/Информация : Audio Video Interleave
Размер файла : 745 Мбайт
Продолжительность : 1 ч. 11 м.
Общий поток : 1460 Кбит/сек
Программа кодирования : VirtualDubMod 1.5.10.3 | www.virtualdub-fr.org || (build 2550/release)
Библиотека кодирования : VirtualDubMod build 2550/release

Видео
Идентификатор : 0
Формат : MPEG-4 Visual
Профиль формата : Advanced Simple@L5
Настройки формата : BVOP1 / Custom Matrix
Параметр BVOP формата : 1
Параметр QPel формата : Нет
Параметр GMC формата : Без точки перехода
Параметр матрицы формата : Выборочная
Идентификатор кодека : XVID
Идентификатор кодека/Подсказка : XviD
Продолжительность : 1 ч. 11 м.
Битрейт : 1258 Кбит/сек
Ширина : 704 пикселя
Высота : 528 пикселей
Соотношение сторон : 4:3
Частота кадров : 25,000 кадров/сек
Цветовое пространство : YUV
Субдискретизация насыщенности : 4:2:0
Битовая глубина : 8 бит
Тип развёртки : Прогрессивная
Метод сжатия : С потерями
Бит/(Пиксели*Кадры) : 0.135
Размер потока : 642 Мбайт (86%)
Библиотека кодирования : XviD 73

Аудио
Идентификатор : 1
Формат : AC-3
Формат/Информация : Audio Coding 3
Коммерческое название : Dolby Digital
Идентификатор кодека : 2000
Продолжительность : 1 ч. 11 м.
Вид битрейта : Постоянный
Битрейт : 192 Кбит/сек
Каналы : 2 канала
ChannelLayout : L R
Частота : 48,0 КГц
Частота кадров : 31,250 кадров/сек (1536 SPF)
Битовая глубина : 16 бит
Метод сжатия : С потерями
Размер потока : 98,1 Мбайт (13%)
Выравнивание : Разделение по промежуткам
Продолжительность промежутка : 40 мс. (1,00 видеокадр)
Время предзагрузки промежутка : 500 мс.



Скачать Пятеро из Ферганы через торрент http://i106.fastpic.ru/big/2019/1101/31/4fcef84bd1164cad866515ec8f50df31.png Скачать, смотреть онлайн Пятеро из Ферганы бесплантно в хорошем качестве Описание:Киноповесть о первом комсомольском секретаре Туркестана - Абдулле Набиеве.... Исходник: ... 5 10 1
Info! Золотая раздача, скачанное не засчитывается.
Торрент: Зарегистрирован [2019-06-15 09:25] · скачан: 14 раз
Статус: √ проверено
Размер: 745 MB
Как cкачать? Как скачать Пятеро из Ферганы через торрент | UTorrent

% Раздел Тема Автор DL S | L
Кино СССР [ 745 MB ] Пятеро из Ферганы | | Пятеро из Ферганы (Юлдаш Агзамов AVP Studio Скачать
2 | 0

28-11-2019 20:33  

Отключить вcю реклaмy на сайте

    Дорогой пользователь! Огромная просьба, поблагодарите релизера, оцените раздачу и оставьте свои комментарий, если Вы скачали Пятеро из Ферганы через торрент бесплатно!!
    Комментировать посты могут только пользователи прошедшие не сложную регистрацию
    Показать сообщения:    


    Пятеро из Ферганы через торрент
    Скачать бесплатно Пятеро из Ферганы
    Пятеро из Ферганы скачать торрент
    Пятеро из Ферганы смотреть онлайн
    Cкачать фильм Пятеро из Ферганы бесплатно
    Пятеро из Ферганы скачать торрент в хорошем качестве
    Пятеро из Ферганы смотреть онлайн бесплатно в хорошем качестве
    Вы не можете начинать темы
    Вы не можете отвечать на сообщения
    Вы не можете редактировать свои сообщения
    Вы не можете удалять свои сообщения
    Вы не можете голосовать в опросах
    Вы не можете прикреплять файлы к сообщениям
    Вы можете скачивать файлы