Доктор Стрэндж

Лицензия

Добыча

Дубляж

Дом дракона

1 сезон

Тор

Дубляж

В эфире

Дубляж

Там, где раки поют

MVO

Властелин колец

1 сезон

Ultimate

pack

Рекомендуем

30

Пиратка

ВАЖНО

ВАЖНО

Ghostwire

Пиратка

jed

RePack

nioh2

RePack

RDR2

RePack

NEED FOR SPEED™ PAYBACK

RePack

скачать торрент

Кинопоиск HD

Острые козырьки 6 сезон

6 сезон

FAR CRY 6

RePack

скачать торрент

Лицензия

скачать торрент

MVO

1

1 сезон

скачать торрент

1 сезон

скачать торрент

Лицензия

  

Загадочное убийство / Murder Mystery (Кайл Ньюачек) [2019, боевик, мелодрама, комедия, детектив, WEB-DLRip-AVC] Дубляж [Пифагор]

Загадочное убийство через торрент piratbit.org

Раздают: 1 [ 0 KB/s ]
Размер: 1.46 GB | Добавлен: 3 года 5 мес. назад | Торрент скачан:907 раз
Смотреть онлайн | Скачать   

16-06-2019 01:12 Загадочное убийство Скачать торрент  

Загадочное убийство / Murder Mystery
Год выпуска: 2019
Страна: США
Жанр: боевик, мелодрама, комедия, детектив
Продолжительность: 01:37:45
Перевод: Дублированный | Пифагор
Субтитры: Русские (форс., полные), Английские (полные)

Режиссер: Кайл Ньюачек

rating


В ролях:

Дженнифер Энистон, Адам Сэндлер, Джемма Артертон, Люк Эванс, Джеки Сэндлер, Оулавюр Дарри Оулафссон, Джон Кани, Теренс Стэмп, Сиори Куцуна, Элен Кардона, Дэвид Уоллиамс, Адиль Ахтар, Суфе Брэдшоу, Пилар Холлэнд, Хелена Мари Патт, Роуз Мария Вильде

Описание:

Чтобы оживить семейные отношения полицейский из Нью-Йорка вместе со своей женой отправляются в путешествие по Европе. В самолете они знакомятся с богатым пожилым мужчиной, который приглашает их на свою роскошную яхту. Но там его убивают, а они становятся главными подозреваемыми...

Качество: WEB-DLRip-AVC
Формат: MKV

Видео: 1024x512 (2:1), 24,000 fps, x264 ~1 688 kbps avg, 0.112 bit/pixel
Аудио: 48 kHz, AC3 Dolby Digital Plus, 3/2 (L,C,R,l,r) + LFE ch, ~448.00 kbps avg | RUS (Пифагор)
скриншот  скриншот  скриншот  скриншот  скриншот  

Общее
Уникальный идентификатор : 167299794011578198650476686562316288167 (0x7DDCC4AF27FC9B044ADE06E44DB880A7)
Полное имя : F:OlLanDGroupMurder.Mystery.2019.NF.WEB-DLRip(AVC).OlLanDGroup.mkv
Формат : Matroska
Версия формата : Version 4 / Version 2
Размер файла : 1,46 Гбайт
Продолжительность : 1 ч. 37 м.
Общий поток : 2136 Кбит/сек
Название фильма : Murder Mystery (2019) #TorpedoUK#
Дата кодирования : UTC 2019-06-15 19:29:22
Программа кодирования : mkvmerge v29.0.0 ('Like It Or Not') 64-bit
Библиотека кодирования : libebml v1.3.6 + libmatroska v1.4.9

Видео
Идентификатор : 1
Формат : AVC
Формат/Информация : Advanced Video Codec
Профиль формата : High@L4.1
Параметр CABAC формата : Да
Параметр ReFrames формата : 10 кадров
Идентификатор кодека : V_MPEG4/ISO/AVC
Продолжительность : 1 ч. 37 м.
Битрейт : 1688 Кбит/сек
Ширина : 1024 пикселя
Высота : 512 пикселей
Соотношение сторон : 2,000
Режим частоты кадров : Постоянный
Частота кадров : 24,000 кадра/сек
Цветовое пространство : YUV
Субдискретизация насыщенности : 4:2:0
Битовая глубина : 8 бит
Тип развёртки : Прогрессивная
Бит/(Пиксели*Кадры) : 0.134
Размер потока : 1,15 Гбайт (79%)
Библиотека кодирования : x264 core 146 r2538 121396c
Настройки программы : cabac=1 / ref=10 / deblock=1:-3:-3 / analyse=0x3:0x113 / me=umh / subme=10 / psy=1 / psy_rd=0.97:0.05 / mixed_ref=1 / me_range=48 / chroma_me=1 / trellis=2 / 8x8dct=1 / cqm=0 / deadzone=21,11 / fast_pskip=1 / chroma_qp_offset=-3 / threads=6 / lookahead_threads=1 / sliced_threads=0 / nr=0 / decimate=1 / interlaced=0 / bluray_compat=0 / constrained_intra=0 / bframes=11 / b_pyramid=2 / b_adapt=2 / b_bias=0 / direct=3 / weightb=1 / open_gop=0 / weightp=2 / keyint=240 / keyint_min=24 / scenecut=40 / intra_refresh=0 / rc_lookahead=40 / rc=2pass / mbtree=0 / bitrate=1688 / ratetol=1.0 / qcomp=0.60 / qpmin=0 / qpmax=69 / qpstep=4 / cplxblur=20.0 / qblur=0.5 / vbv_maxrate=50000 / vbv_bufsize=62500 / nal_hrd=none / filler=0 / ip_ratio=1.40 / pb_ratio=1.30 / aq=1:1.00
Default : Да
Forced : Нет

Аудио
Идентификатор : 2
Формат : AC-3
Формат/Информация : Audio Coding 3
Расширение режима : CM (complete main)
Параметр Endianness формата : Big
Идентификатор кодека : A_AC3
Продолжительность : 1 ч. 37 м.
Вид битрейта : Постоянный
Битрейт : 448 Кбит/сек
Каналы : 6 каналов
Расположение каналов : Front: L C R, Side: L R, LFE
Частота : 48,0 КГц
Частота кадров : 31,250 кадров/сек (1536 spf)
Битовая глубина : 16 бит
Метод сжатия : С потерями
Размер потока : 313 Мбайт (21%)
Заголовок : Дубляж [Пифагор]
Язык : Russian
Default : Да
Forced : Нет

Текст #1
Идентификатор : 3
Формат : UTF-8
Идентификатор кодека : S_TEXT/UTF8
Идентификатор кодека/Информация : UTF-8 Plain Text
Продолжительность : 1 ч. 36 м.
Битрейт : 0 бит/сек
Count of elements : 15
Размер потока : 567 байт (0%)
Заголовок : Forced
Язык : Russian
Default : Да
Forced : Нет

Текст #2
Идентификатор : 4
Формат : UTF-8
Идентификатор кодека : S_TEXT/UTF8
Идентификатор кодека/Информация : UTF-8 Plain Text
Продолжительность : 1 ч. 36 м.
Битрейт : 118 бит/сек
Count of elements : 1674
Размер потока : 83,9 Кбайт (0%)
Заголовок : Full
Язык : Russian
Default : Нет
Forced : Нет

Текст #3
Идентификатор : 5
Формат : UTF-8
Идентификатор кодека : S_TEXT/UTF8
Идентификатор кодека/Информация : UTF-8 Plain Text
Продолжительность : 1 ч. 28 м.
Битрейт : 106 бит/сек
Count of elements : 2036
Размер потока : 69,3 Кбайт (0%)
Заголовок : SDH
Язык : English
Default : Нет
Forced : Нет




Скачать Загадочное убийство через торрент https://i3-imageban-ru.translate.goog/out/2019/06/15/050c161a4f015e4f2940181eaf4b2fdf.jpg Скачать, смотреть онлайн Загадочное убийство бесплантно в хорошем качестве Описание: Чтобы оживить семейные отношения полицейский из Нью-Йорка вместе со своей женой отправляются в путешествие по Европе. В самолете ... 10 10 14
Info! Золотая раздача, скачанное не засчитывается.
Торрент: Зарегистрирован [2019-06-16 01:12] · скачан: 907 раз
Статус: √ проверено
Размер: 1.46 GB
Как cкачать? Как скачать Загадочное убийство через торрент | UTorrent

% Раздел Тема Автор DL S | L
Фильмы 2019-2020 [DVDrip, WEB-DLRip, HDrip] (DUB, MVO) [ 2.16 GB ] Загадочное убийство / Murder Mystery | | DLRip-AVC killermax2013 Скачать
2 | 0
Фильмы 2019-2020 [DVDrip, WEB-DLRip, HDrip] (DUB, MVO) [ 1.46 GB ] Загадочное убийство / Murder Mystery | Пифагор | DLRip-AVC sokol_ok Скачать
2 | 0
Фильмы (WEB-DL 720p, 1080p) [ 3.68 GB ] Загадочное убийство / Murder Mystery | Пифагор | 1080p bober100 Скачать
4 | 0
Фильмы (WEB-DL 720p, 1080p) [ 2.34 GB ] Загадочное убийство / Murder Mystery | Пифагор | 720p bober100 Скачать
1 | 0
Ultra HD (UHD: 2K, 4K, 8K) [ 14.57 GB ] Загадочное убийство / Murder Mystery | Пифагор | 2160p sheker187 Скачать
1 | 0
Фильмы 2019-2020 [DVDrip, WEB-DLRip, HDrip] (DUB, MVO) [ 1.46 GB ] Загадочное убийство / Murder Mystery | Пифагор | DLRip bober100 Скачать
1 | 0

28-11-2019 20:33  


Отключить вcю реклaмy на сайте, в т.ч. и в плеере онлайн просмотра!

    Дорогой пользователь! Огромная просьба, поблагодарите релизера, оцените раздачу и оставьте свои комментарий, если Вы скачали Загадочное убийство через торрент бесплатно!!
    Комментировать посты могут только пользователи прошедшие не сложную регистрацию
    Показать сообщения:    


    Загадочное убийство через торрент
    Скачать бесплатно Загадочное убийство
    Загадочное убийство скачать торрент
    Загадочное убийство смотреть онлайн
    Cкачать фильм Загадочное убийство бесплатно
    Загадочное убийство скачать торрент в хорошем качестве
    Загадочное убийство смотреть онлайн бесплатно в хорошем качестве
    Вы не можете начинать темы
    Вы не можете отвечать на сообщения
    Вы не можете редактировать свои сообщения
    Вы не можете удалять свои сообщения
    Вы не можете голосовать в опросах
    Вы не можете прикреплять файлы к сообщениям
    Вы можете скачивать файлы
    Загадочное убийство / Murder Mystery [2019, боевик, мелодрама, комедия, детектив, WEB-DLRip-AVC] Дубляж [Пифагор] смотреть онлайн, скачать торрент picoco.icu