Достать ножи: Стеклянная луковица

MVO

Добыча

Дубляж

Уэнсдэй

1 сезон

Тор

Дубляж

13 клиническая

1 сезон

Жестокая ночь

MVO

Одни из нас

1 сезон

Deluxe

pack

Рекомендуем

30

Пиратка

ВАЖНО

ВАЖНО

Ghostwire

Пиратка

jed

RePack

nioh2

RePack

RDR2

RePack

NEED FOR SPEED™ PAYBACK

RePack

скачать торрент

Кинопоиск HD

Острые козырьки 6 сезон

6 сезон

FAR CRY 6

RePack

скачать торрент

Лицензия

скачать торрент

MVO

1

1 сезон

скачать торрент

1 сезон

скачать торрент

Лицензия

  

Ты – моё сомнение / Always Be My Maybe (Нахнатчка Кхан) [2019, мелодрама, комедия, UHD WEB-DL 2160p] Дубляж [НеваФильм]

Ты – моё сомнение через торрент piratbit.org

Размер: 17.73 GB | Добавлен: 3 года 7 мес. назад | Торрент скачан:26 раз
Смотреть онлайн | Скачать | Поддержите нас   

17-06-2019 01:53 Ты – моё сомнение Скачать торрент  

Ты – моё сомнение / Always Be My Maybe««There's Always Been Something Between Them»»

Год выпуска: 2019
Страна: США
Жанр: мелодрама, комедия
Продолжительность: 01:42:22
Перевод: Дублированный [Студия "НеваФильм"]
Субтитры: Русские (форс., полные), Английские (SDH)
Режиссер: Нахнатчка Кхан
В ролях:

Али Вонг (Sasha Tran), Рэндолл Парк (Marcus Kim), Киану Ривз (Keanu Reeves), Мия Чех (Younger Sasha), Шарлин Йи, Дэниэл Дэ Ким (Brandon Choi), Каран Сони (Tony), Кейси Уилсон, Сьюзэн Парк, Мишель Бюто (Veronica), Карен Холнесс (Kathy), Эшли Лиао (Young Sasha)
Описание:
Бывает такое, что дети, любящие друг друга в совсем раннем возрасте, однажды ссорятся и не разговаривают в течение длительных 15 лет. Они воссоединяются, когда становятся взрослыми: она — знаменитый шеф-повар, открывающий ресторан в Сан-Франциско, неожиданно сталкивается со своим потерянным любимым музыкантом, все еще живущим дома и работающим на своего отца. Старые чувства вспыхивают пожаром, но могут ли герои адаптироваться к взрослому миру друг друга и понять, что главное в их жизни – это их взаимная любовь?
Рейтинг:

MPAA: PG-13 - Детям до 13 лет просмотр не желателен
Качество: UHD WEB-DL 2160p
Формат: MKV
Видео: HEVC HDR, 23.7 Mбит/с, 3840x1920, 23.976 Кадр/с, 10 Бит
Аудио №1: русский / E-AC3 / 5.1 / 48 kHz / 640 kbps /
Аудио №2: английский / E-AC3 / 5.1 / 48 kHz / 640 kbps /

Общее
Уникальный идентификатор : 181935470908396326218831161427006621013 (0x88DF7F445C9AD1CBA07B5B637EA48555)
Полное имя : D:\Передел\Always.Be.My.Maybe.2019.2160p.WEB-DL.HDR.HEVC.Master5.mkv
Формат : Matroska
Версия формата : Version 4
Размер файла : 17,7 Гбайт
Продолжительность : 1 ч. 42 м.
Общий поток : 24,8 Мбит/сек
Название фильма : Always.Be.My.Maybe.2019.2160p.WEB-DL.HDR.HEVC.Master5
Дата кодирования : UTC 2019-06-16 21:05:49
Программа кодирования : mkvmerge v7.9.0 ('Birds') 64bit
Библиотека кодирования : libebml v1.3.1 + libmatroska v1.4.2
Attachments : Always Be My Maybe.jpg

Видео
Идентификатор : 1
Формат : HEVC
Формат/Информация : High Efficiency Video Coding
Коммерческое название : HDR10
Профиль формата : Main 10@L5.1@High
Идентификатор кодека : V_MPEGH/ISO/HEVC
Продолжительность : 1 ч. 41 м.
Битрейт : 23,7 Мбит/сек
Ширина : 3840 пикселей
Высота : 1920 пикселей
Соотношение сторон : 2,000
Режим частоты кадров : Постоянный
Частота кадров : 24,000 кадра/сек
Цветовое пространство : YUV
Субдискретизация насыщенности : 4:2:0 (Type 2)
Битовая глубина : 10 бит
Бит/(Пиксели*Кадры) : 0.134
Размер потока : 16,8 Гбайт (95%)
Заголовок : Always.Be.My.Maybe.2019.2160p.WEB-DL.HDR.HEVC.Master5
Библиотека кодирования : x265 3.0_Au+24-4217e691387c:[Windows][GCC 9.1.1][64 bit] 10bit
Настройки программы : rc=crf / crf=14.0000 / qcomp=0.60 / qpstep=4 / stats-write=0 / stats-read=0 / vbv-maxrate=160000 / vbv-bufsize=160000 / vbv-init=0.9 / crf-max=0.0 / crf-min=0.0 / qpmax=69 / qpmin=0 / no-lossless / no-cu-lossless / no-hevc-aq / no-aq-motion / aq-mode=1 / aq-strength=1.00 / cbqpoffs=0 / crqpoffs=0 / ipratio=1.40 / pbratio=1.30 / psy-rd=2.00 / psy-rdoq=1.00 / deblock=-3:-3 / ref=4 / limit-refs=3 / limit-modes / bframes=4 / b-adapt=2 / bframe-bias=0 / b-pyramid / no-b-intra / weightp / no-weightb / keyint=240 / min-keyint=24 / rc-lookahead=25 / gop-lookahead=0 / scenecut=40 / scenecut-bias=0.05 / ctu=64 / min-cu-size=8 / me=3 / subme=3 / merange=57 / rd=4 / no-rd-refine / no-ssim-rd / dynamic-rd=0.00 / rdoq-level=2 / rdpenalty=0 / cutree / no-sao / no-limit-sao / no-sao-non-deblock / rect / no-amp / no-open-gop / max-tu-size=32 / tu-inter-depth=1 / tu-intra-depth=1 / limit-tu=0 / qg-size=32 / wpp / no-pmode / no-pme / no-psnr / no-ssim / no-tskip / no-constrained-intra / no-strong-intra-smoothing / max-merge=3 / nr-intra=0 / nr-inter=0 / input-csp=1 / input-res=3840x1920 / interlace=0 / total-frames=146489 / level-idc=51 / high-tier=1cpuid=1111039 / frame-threads=4 / numa-pools=28 / log-level=2 / uhd-bd=0 / lookahead-slices=4 / radl=0 / no-splice / no-intra-refresh / signhide / temporal-mvp / no-analyze-src-pics / no-early-skip / rskip / no-fast-intra / no-tskip-fast / no-splitrd-skip / zone-count=0 / no-strict-cbr / no-rc-grain / no-const-vbv / no-allow-non-conformance / repeat-headers / annexb / aud / hrd / info / hash=0 / no-temporal-layers / sar=0 / overscan=0 / videoformat=5 / range=0 / colorprim=9 / transfer=16 / colormatrix=9 / chromaloc=1 / chromaloc-top=2 / chromaloc-bottom=2 / display-window=0 / master-display=G(13250,34500)B(7500,3000)R(34000,16000)WP(15635,16450)L(40000000,50) / max-cll=1411,1032 / min-luma=0 / max-luma=1023 / log2-max-poc-lsb=8 / vui-timing-info / vui-hrd-info / slices=1 / no-opt-qp-pps / no-opt-ref-list-length-pps / no-multi-pass-opt-rps / no-opt-cu-delta-qp / hdr / hdr-opt / no-dhdr10-opt / no-idr-recovery-sei / analysis-reuse-level=5 / scale-factor=0 / refine-intra=0 / refine-inter=0 / refine-mv=0 / refine-ctu-distortion=0 / ctu-info=0 / no-lowpass-dct / refine-analysis-type=0 / copy-pic=1 / max-ausize-factor=1.0 / no-dynamic-refine / no-single-sei / no-svt / qp-adaptation-range=1.00
Default : Да
Forced : Нет
Цветовой диапазон : Limited
Основные цвета : BT.2020
Характеристики трансфера : PQ
Коэффициенты матрицы : BT.2020 non-constant
MasteringDisplay_ColorPrimaries : Display P3
MasteringDisplay_Luminance : min: 0.0050 cd/m2, max: 4000 cd/m2
MaxCLL : 1411 cd/m2
MaxFALL : 1032 cd/m2

Аудио #1
Идентификатор : 2
Формат : E-AC-3
Формат/Информация : Enhanced AC-3
Коммерческое название : Dolby Digital Plus
Идентификатор кодека : A_EAC3
Продолжительность : 1 ч. 42 м.
Вид битрейта : Постоянный
Битрейт : 640 Кбит/сек
Каналы : 6 каналов
Channel layout : L R C LFE Ls Rs
Частота : 48,0 КГц
Частота кадров : 31,250 кадров/сек (1536 SPF)
Метод сжатия : С потерями
Размер потока : 469 Мбайт (3%)
Язык : Russian
ServiceKind/String : Complete Main
Default : Да
Forced : Нет

Аудио #2
Идентификатор : 3
Формат : E-AC-3
Формат/Информация : Enhanced AC-3
Коммерческое название : Dolby Digital Plus
Идентификатор кодека : A_EAC3
Продолжительность : 1 ч. 42 м.
Вид битрейта : Постоянный
Битрейт : 640 Кбит/сек
Каналы : 6 каналов
Channel layout : L R C LFE Ls Rs
Частота : 48,0 КГц
Частота кадров : 31,250 кадров/сек (1536 SPF)
Метод сжатия : С потерями
Размер потока : 469 Мбайт (3%)
Язык : English
ServiceKind/String : Complete Main
Default : Нет
Forced : Нет

Текст #1
Идентификатор : 4
Формат : UTF-8
Идентификатор кодека : S_TEXT/UTF8
Идентификатор кодека/Информация : UTF-8 Plain Text
Продолжительность : 1 ч. 41 м.
Битрейт : 11 бит/сек
ElementCount : 117
Размер потока : 8,52 Кбайт (0%)
Заголовок : Forced
Язык : Russian
Default : Да
Forced : Нет

Текст #2
Идентификатор : 5
Формат : UTF-8
Идентификатор кодека : S_TEXT/UTF8
Идентификатор кодека/Информация : UTF-8 Plain Text
Продолжительность : 1 ч. 41 м.
Битрейт : 114 бит/сек
ElementCount : 1439
Размер потока : 85,1 Кбайт (0%)
Язык : Russian
Default : Нет
Forced : Нет

Текст #3
Идентификатор : 6
Формат : UTF-8
Идентификатор кодека : S_TEXT/UTF8
Идентификатор кодека/Информация : UTF-8 Plain Text
Продолжительность : 1 ч. 40 м.
Битрейт : 109 бит/сек
ElementCount : 2094
Размер потока : 80,5 Кбайт (0%)
Заголовок : SDH
Язык : English
Default : Нет
Forced : Нет



Скачать Ты – моё сомнение через торрент https://d.radikal.ru/d25/1906/5f/e7023de6b3be.png Скачать, смотреть онлайн Ты – моё сомнение бесплантно в хорошем качестве Описание: Бывает такое, что дети, любящие друг друга в совсем раннем возрасте, однажды ссорятся и не разговаривают в течение длительных 15 ... 10 10 2
Торрент: Зарегистрирован [2019-06-17 01:53] · скачан: 26 раз
Статус: √ проверено
Размер: 17.73 GB
Как cкачать? Как скачать Ты – моё сомнение через торрент | UTorrent

% Раздел Тема Автор DL S | L
Фильмы (WEB-DL 720p, 1080p) [ 3.53 GB ] Ты - моё сомнение / Always Be My Maybe | DUB | 1080p bober100 Скачать
1 | 0
Фильмы 2019-2020 [DVDrip, WEB-DLRip, HDrip] (DUB, MVO) [ 1.46 GB ] Ты – моё сомнение / Always Be My Maybe | | DLRip killermax2013 Скачать
1 | 0

28-11-2019 20:33  


Отключить вcю реклaмy на сайте, в т.ч. и в плеере онлайн просмотра!

    Дорогой пользователь! Огромная просьба, поблагодарите релизера, оцените раздачу и оставьте свои комментарий, если Вы скачали Ты – моё сомнение через торрент бесплатно!!
    Комментировать посты могут только пользователи прошедшие не сложную регистрацию
    Показать сообщения:    


    Ты – моё сомнение через торрент
    Скачать бесплатно Ты – моё сомнение
    Ты – моё сомнение скачать торрент
    Ты – моё сомнение смотреть онлайн
    Cкачать фильм Ты – моё сомнение бесплатно
    Ты – моё сомнение скачать торрент в хорошем качестве
    Ты – моё сомнение смотреть онлайн бесплатно в хорошем качестве
    Вы не можете начинать темы
    Вы не можете отвечать на сообщения
    Вы не можете редактировать свои сообщения
    Вы не можете удалять свои сообщения
    Вы не можете голосовать в опросах
    Вы не можете прикреплять файлы к сообщениям
    Вы можете скачивать файлы
    Ты – моё сомнение / Always Be My Maybe [2019, мелодрама, комедия, UHD WEB-DL 2160p] Дубляж [НеваФильм] смотреть онлайн, скачать торрент picoco.icu