новый адрес пиратбит piratbit
Мега распродажа FORZA HORIZON 4 ULTIMATE+ВСЕ DLC+ОНЛАЙН всего за 499р. 349 руб. (супер цена). Внимание количество ограничено!!!

iTunes

1+1

iTunes

мы

iTunes

1

iTunes

Чернобыль

iTunes

Ральф против интернета

Лицензия

ПШазам

Лицензия

Игра престолов

Лицензия

30
pack

ВАЖНО

!!Акция!!

Alien_RageХит недели

RePack

Resident Evil 21

ИГРА 18+

pack

RePack

Metro:Exodus

!!Акция!!

Alien_Rage

RePack

fifa19

RePack

Assassins Creed: Odyssey

RePack

NEED FOR SPEED™ PAYBACK

3 сезон

9 сезон

Бесстыжие 9 сезон

Все сериалы

все сериалы на PB.wtf

RePack

FAR CRY 5
Ребята, катастрофически не хватает 1900р. для оплаты серверов за Октябрь (всвязи с блокировками трафик упал в 3 раза), 1-2р., выручайте.
  

Я не такой! Я не такая! (Руслан Паушу) [2019, комедия, драма, WEB-DLRip-AVC] [iTunes] piratbit.org

Я не такой! Я не такая! через торрент piratbit.org

Размер: 1.37 GB | Добавлен: 3 мес. 19 д. назад | Торрент скачан:49 раз
Скачать  

19-06-2019 06:13 Я не такой! Я не такая! Скачать торрент  

Я не такой! Я не такая!
Год выпуска: 2019
Страна: Россия
Жанр: комедия, драма
Продолжительность: 01:23:40
Перевод: Не требуется | iTunes
Субтитры: отсутствуют

Режиссер: Руслан Паушу



В ролях: Филипп Рейнхардт, Анна Чурина, Кристина Бабушкина, Рената Пиотровски, Анатолий Руденко, Иван Кокорин, Наталья Лесниковская, Тимур Боканча, Елена Драпеко, Валентина Мазунина

Описание: Три подруги - Вера, Люба и Надя встречаются в загородном доме, чтобы отметить помолвку Нади, но во время празднования они узнают, что их любимые мужчины пользуются услугами одной и той же проститутки.

И кажется, что женский идеальный мир разрушен навсегда. Отчаявшись, девушки решаются вызвать разлучницу на дом под видом клиенток, и девичник обретает совершенно неожиданный поворот.

Качество: WEB-DLRip-AVC
Формат: MKV

Видео: MPEG-4 AVC, ~ 1956 Кбит/с, 1024x432, 24 кадр/с
Аудио: Russian: AC3, 48.0 KHz, 6 ch, 384 kbps - iTunes
скриншот  скриншот  скриншот  скриншот  

Общее
Уникальный идентификатор : 244050946592371066250704439517127012111 (0xB79A80AA61E7BD9BAA01FC8460026F0F)
Полное имя : C:\YA.ne.takoj! YA.ne.takaya!.(2019).WEB-DLRip.(AVC).by.Серый1779.Files-x.mkv
Формат : Matroska
Версия формата : Version 2
Размер файла : 1,37 Гбайт
Продолжительность : 1 ч. 23 м.
Общий поток : 2341 Кбит/сек
Дата кодирования : UTC 2019-07-25 21:54:30
Программа кодирования : mkvmerge v7.8.0 ('River Man') 32bit built on Apr 3 2015 12:11:22
Библиотека кодирования : libebml v1.3.1 + libmatroska v1.4.2

Видео
Идентификатор : 1
Формат : AVC
Формат/Информация : Advanced Video Codec
Профиль формата : High@L4.1
Параметр CABAC формата : Да
Параметр RefFrames формата : 10 кадров
Идентификатор кодека : V_MPEG4/ISO/AVC
Продолжительность : 1 ч. 23 м.
Битрейт : 1956 Кбит/сек
Ширина : 1024 пикселя
Высота : 432 пикселя
Соотношение сторон : 2,40:1
Режим частоты кадров : Постоянный
Частота кадров : 24,000 кадра/сек
Цветовое пространство : YUV
Субдискретизация насыщенности : 4:2:0
Битовая глубина : 8 бит
Тип развёртки : Прогрессивная
Бит/(Пиксели*Кадры) : 0.184
Размер потока : 1,12 Гбайт (82%)
Библиотека кодирования : x264 core 146 r2538 121396c
Настройки программы : cabac=1 / ref=10 / deblock=1:-2:-1 / analyse=0x3:0x133 / me=umh / subme=11 / psy=1 / psy_rd=1.00:0.08 / mixed_ref=1 / me_range=32 / chroma_me=1 / trellis=2 / 8x8dct=1 / cqm=0 / deadzone=21,11 / fast_pskip=0 / chroma_qp_offset=-3 / threads=18 / lookahead_threads=3 / sliced_threads=0 / nr=0 / decimate=1 / interlaced=0 / bluray_compat=0 / constrained_intra=0 / bframes=11 / b_pyramid=2 / b_adapt=2 / b_bias=0 / direct=1 / weightb=1 / open_gop=0 / weightp=2 / keyint=250 / keyint_min=23 / scenecut=40 / intra_refresh=0 / rc=2pass / mbtree=0 / bitrate=1956 / ratetol=1.0 / qcomp=0.60 / qpmin=0 / qpmax=69 / qpstep=4 / cplxblur=20.0 / qblur=0.5 / ip_ratio=1.40 / pb_ratio=1.30 / aq=2:1.00
Default : Да
Forced : Нет
Цветовой диапазон : Limited
Основные цвета : BT.709
Характеристики трансфера : BT.709
Коэффициенты матрицы : BT.709

Аудио
Идентификатор : 2
Формат : AC-3
Формат/Информация : Audio Coding 3
Расширение режима : CM (complete main)
Параметр Endianness формата : Big
Идентификатор кодека : A_AC3
Продолжительность : 1 ч. 23 м.
Вид битрейта : Постоянный
Битрейт : 384 Кбит/сек
Каналы : 6 каналов
Расположение каналов : Front: L C R, Side: L R, LFE
Частота : 48,0 КГц
Частота кадров : 31,250 кадров/сек (1536 spf)
Метод сжатия : С потерями
Размер потока : 230 Мбайт (16%)
Default : Да
Forced : Нет
piratbit.org



Скачать Я не такой! Я не такая! через торрент https://i1.imageban.ru/out/2019/07/25/4e0958f64367ad48bf5c4a602b0bb0e7.png Скачать фильм Я не такой! Я не такая! через торрент бесплантно в хорошем качестве Описание: Три подруги - Вера, Люба и Надя встречаются в загородном доме, чтобы отметить помолвку Нади, но во время празднования они узнают, ... 9.3 10 7
Торрент: Зарегистрирован [2019-07-26 01:41] · скачан: 49 раз
Статус: √ проверено
Размер: 1.37 GB
Как cкачать? Как скачать Я не такой! Я не такая! через торрент | qTorrent

% Раздел Тема Автор DL S | L
Русское любительское видео [ 115 MB ] Я хочу так всегда [2019 Amateur CamRip] Скорпион1976 Скачать
5 | 0
Наши новые фильмы 2018-2019 [ 1.45 GB ] Я не такой! Я не такая! [2019 WEB-DLRip] bober100 Скачать
3 | 0
Наши фильмы (HD, WEB-DL 720p, 1080p) [ 2.89 GB ] Я не такой! Я не такая! [2019 WEB-DL 1080p] bober100 Скачать
1 | 0
Фильмы 2017 [DVDrip, WEB-DLRip, HDrip] (DUB, MVO) [ 2.18 GB ] Такой же не такой как я / Такой же другой как и я / Same Kind of Different as Me [2017 BDRip-AVC] bober100 Скачать
2 | 0
Фильмы [HD 720p, 1080p] (Хороший звук DUB, MVO) [ 12.42 GB ] Такой же не такой как я / Такой же другой как и я / Same Kind of Different as Me [2017 BDRip 1080p] -Lexx- Скачать
1 | 0
Фильмы 2017 [DVDrip, WEB-DLRip, HDrip] (DUB, MVO) [ 1.41 GB ] Такой же не такой как я / Такой же другой как и я / Same Kind of Different as Me [2017 BDRip] bober100 Скачать
1 | 0
Фильмы [HD 720p, 1080p] (Хороший звук DUB, MVO) [ 5.33 GB ] Такой же не такой как я / Такой же другой как и я / Same Kind of Different as Me [2017 BDRip 720p] bober100 Скачать
1 | 0


>> Регистрируемся здесь <<






Отзывы и комментарии о схеме читаем и пишем здесь: ---> Отзывы и комментарии о схеме

Новые благодарочки в телеграм довольных пользователей:
скриншот   скриншот   скриншот   скриншот   скриншот
    Дорогой пользователь! Огромная просьба, поблагодарите релизера, оцените раздачу и оставьте свои комментарий, если Вы скачали Я не такой! Я не такая! через торрент бесплатно! Внесите свою лепту в развитие PiratBit!
    Комментировать посты могут только пользователи прошедшие не сложную регистрацию
    Показать сообщения:    

    Я не такой! Я не такая! через торрент
    Скачать бесплатно Я не такой! Я не такая!
    Я не такой! Я не такая! скачать торрент
    Я не такой! Я не такая! смотреть онлайн
    Cкачать фильм Я не такой! Я не такая! бесплатно
    Я не такой! Я не такая! скачать торрент в хорошем качестве
    Я не такой! Я не такая! смотреть онлайн бесплатно в хорошем качестве


    Вы не можете начинать темы
    Вы не можете отвечать на сообщения
    Вы не можете редактировать свои сообщения
    Вы не можете удалять свои сообщения
    Вы не можете голосовать в опросах
    Вы не можете прикреплять файлы к сообщениям
    Вы можете скачивать файлы