новый адрес
Мега распродажа FORZA HORIZON 4 ULTIMATE+ВСЕ DLC+ОНЛАЙН всего за 499р. 349 руб. (супер цена). Внимание количество ограничено!!!

iTunes

1+1

iTunes

мы

iTunes

1

iTunes

Чернобыль

iTunes

Ральф против интернета

Лицензия

ПШазам

Лицензия

Игра престолов

Лицензия

30
pack

ВАЖНО

!!Акция!!

Alien_RageХит недели

RePack

Resident Evil 21

ИГРА 18+

pack

RePack

Metro:Exodus

!!Акция!!

Alien_Rage

RePack

fifa19

RePack

Assassins Creed: Odyssey

RePack

NEED FOR SPEED™ PAYBACK

3 сезон

9 сезон

Бесстыжие 9 сезон

Все сериалы

все сериалы на PB.wtf

RePack

FAR CRY 5
Ребята, катастрофически не хватает 1900р. для оплаты серверов за Октябрь (всвязи с блокировками трафик упал в 3 раза), 1-2р., выручайте.
  

Агенты Щ.И.Т. / Agents of S.H.I.E.L.D. / Сезон: 6 / Серии: 1-13 из 13 (Билл Джирхарт, Винс Мисиано, Джесси Бокко) [2019, фантастика, боевик, триллер, драма, приключения, WEB-DL 1080p] MVO [TVShows] piratbit.org

Агенты Щ.И.Т. через торрент piratbit.org

Раздают: 2 [ 207 KB/s ]
Размер: 36.32 GB | Добавлен: 2 мес. 14 д. назад | Торрент скачан:12 раз
Скачать  

19-06-2019 07:51 Агенты Щ.И.Т. Скачать торрент  

Агенты Щ.И.Т. / Agents of S.H.I.E.L.D. Год выпуска: 2019
Страна: США
Жанр: фантастика, боевик, триллер, драма, приключения
Продолжительность: ~ 00:43:00
Перевод: Профессиональный (многоголосый закадровый) | TVShows
Субтитры: английские

Режиссёр: Билл Джирхарт, Винс Мисиано, Джесси Бокко

В ролях: Кларк Грегг, Минг-На, Бретт Далтон, Хлоя Беннет, Йен де Кестекер, Элизабет Хенстридж, Ник Блад, Эдрианн Палики, Генри Симмонс, Люк Митчелл

Описание: Действия сериала разворачиваются после событий фильма «Мстители». Агент Фил Колсон возвращается в правоохранительную организацию под названием Щ. И. Т., собрав небольшую команду профессионалов, он начинает работу над новыми делами, которые порой бывают очень странными.

rating


Качество: WEB-DL 1080p
Контейнер: MKV

Видео: AVC, 1920x1080 (16:9), ~8207 kbps, 23.976 fps
Аудио 1: AC3, 48 kHz, 6 ch, 384 kbps
Аудио 2: E-AC3, 48 kHz, 6 ch, 640 kbps
General
Unique ID                   : 206316763650797457204590012130130711746 (0x9B3729CEF930E001CA8A0523E1ECD4C2)
Complete name               : F:\Marvels.Agents.of.S.H.I.E.L.D.S06.1080p.TVShows\Marvels.Agents.of.S.H.I.E.L.D.S06E01.1080p.TVShows.mkv
Format                      : Matroska
Format version              : Version 4 / Version 2
File size                   : 2.73 GiB
Duration                    : 42 min 20 s
Overall bit rate            : 9 233 kb/s
Encoded date                : UTC 2019-05-14 16:09:21
Writing application         : mkvmerge v33.1.0 ('Primrose') 64-bit
Writing library             : libebml v1.3.7 + libmatroska v1.5.0

Video
ID                          : 1
Format                      : AVC
Format/Info                 : Advanced Video Codec
Format profile              : High@L4
Format settings             : CABAC / 4 Ref Frames
Format settings, CABAC      : Yes
Format settings, ReFrames   : 4 frames
Codec ID                    : V_MPEG4/ISO/AVC
Duration                    : 42 min 20 s
Bit rate mode               : Constant
Bit rate                    :  8 207 kb/s
Nominal bit rate            : 10 000 kb/s
Width                       : 1 920 pixels
Height                      : 1 080 pixels
Display aspect ratio        : 16:9
Frame rate mode             : Constant
Frame rate                  : 23.976 (24000/1001) FPS
Color space                 : YUV
Chroma subsampling          : 4:2:0
Bit depth                   : 8 bits
Scan type                   : Progressive
Bits/(Pixel*Frame)          : 0.165
Stream size                 : 2.43 GiB (89%)
Default                     : Yes
Forced                      : No
Color range                 : Limited
Color primaries             : BT.709
Transfer characteristics    : BT.709
Matrix coefficients         : BT.709

Audio #1
ID                          : 2
Format                      : AC-3
Format/Info                 : Audio Coding 3
Codec ID                    : A_AC3
Duration                    : 42 min 20 s
Bit rate mode               : Constant
Bit rate                    : 384 kb/s
Channel(s)                  : 6 channels
Channel positions           : Front: L C R, Side: L R, LFE
Sampling rate               : 48.0 kHz
Frame rate                  : 31.250 FPS (1536 SPF)
Bit depth                   : 16 bits
Compression mode            : Lossy
Stream size                 : 116 MiB (4%)
Title                       : TVShows
Language                    : Russian
Service kind                : Complete Main
Default                     : Yes
Forced                      : Yes

Audio #2
ID                          : 3
Format                      : E-AC-3
Format/Info                 : Enhanced Audio Coding 3
Codec ID                    : A_EAC3
Duration                    : 42 min 20 s
Bit rate mode               : Constant
Bit rate                    : 640 kb/s
Channel(s)                  : 6 channels
Channel positions           : Front: L C R, Side: L R, LFE
Sampling rate               : 48.0 kHz
Frame rate                  : 187.500 FPS (256 SPF)
Compression mode            : Lossy
Stream size                 : 194 MiB (7%)
Title                       : Original
Language                    : English
Service kind                : Complete Main
Default                     : No
Forced                      : No

Text
ID                          : 4
Format                      : UTF-8
Codec ID                    : S_TEXT/UTF8
Codec ID/Info               : UTF-8 Plain Text
Duration                    : 42 min 9 s
Bit rate                    : 69 b/s
Count of elements           : 854
Stream size                 : 21.6 KiB (0%)
Title                       : English
Language                    : English
Default                     : No
Forced                      : No
Когда раздача ведётся путём добавления новых серий, при каждом добавлении создётся новый торрент. Чтобы начать докачку новой серии, пользователям необходимо сделать следующее:
(1) остановить скачивание,
(2) удалить старый торрент у себя из клиента (старые серии удалять не надо),
(3) скачать новый торрент и запустить его у себя в клиенте вместо старого, при этом указать клиенту путь в старую папку, куда и должно происходить скачивание новых серий.
Ваш клиент при этом должен произвести хеширование (проверку) старой папки (если не производит сам - помогите ему сделать это), и будет докачивать только те серии, которых у вас ещё нет. Старые серии при этом не удаляются, а продолжают раздаваться!
Eсли вы уже удалили старые серии, то предотвратить повторную закачку старых серий можно, отжав галочку в соответсвующих местах при запуске нового торрента. По возможности, желательно не удалять старые серии как можно дольше, чтобы релизёр не столько продолжал раздавать старые серии, а смог сконцентрироваться на новых.
piratbit.org



Скачать Агенты Щ.И.Т. через торрент https://www.thetvdb.com/banners/graphical/5c828cbcca1a7.jpg Скачать фильм Агенты Щ.И.Т. через торрент бесплантно в хорошем качестве Описание: Действия сериала разворачиваются после событий фильма «Мстители». Агент Фил Колсон возвращается в правоохранительную организацию ... 10 10 5
Info! Золотая раздача, скачанное не засчитывается.
Торрент: Зарегистрирован [2019-09-03 05:11] · скачан: 12 раз
Статус: √ проверено
Размер: 36.32 GB
Как cкачать? Как скачать Агенты Щ.И.Т. через торрент | qTorrent

% Раздел Тема Автор DL S | L
Зарубежные сериалы [ 18.25 GB ] Агенты Щ.И.Т. / Agents of S.H.I.E.L.D. / Сезон: 6 / Серии: 1-13 из 13 [2019 WEB-DL 720p] MVO [LostFilm] bober100 Скачать
4 | 1
Зарубежные сериалы [ 17.8 GB ] Агенты Щ.И.Т. / Agents of S.H.I.E.L.D. / Сезон: 6 / Серии: 1-13 из 13 [2019 WEB-DL 720p] DUB [Невафильм] bober100 Скачать
1 | 0
Зарубежные сериалы [ 8.09 GB ] Агенты «Щ.И.Т.» / Agents of S.H.I.E.L.D./ Сезон: 6 / Серии: 1-13 из 13 [2019 WEB-DLRip ] [LostFilm] Sanekzade1989 Скачать
3 | 3
Зарубежные сериалы [ 35.58 GB ] Агенты Щ.И.Т. / Agents of S.H.I.E.L.D. / Сезон: 6 / Серии: 1-13 из 13 [2019 WEB-DL 1080p] DUB [Невафильм] bober100 Скачать
1 | 0


>> Регистрируемся здесь <<






Отзывы и комментарии о схеме читаем и пишем здесь: ---> Отзывы и комментарии о схеме

Новые благодарочки в телеграм довольных пользователей:
скриншот   скриншот   скриншот   скриншот   скриншот
    Дорогой пользователь! Огромная просьба, поблагодарите релизера, оцените раздачу и оставьте свои комментарий, если Вы скачали Агенты Щ.И.Т. через торрент бесплатно! Внесите свою лепту в развитие PiratBit!
    Комментировать посты могут только пользователи прошедшие не сложную регистрацию
    Показать сообщения:    

    Агенты Щ.И.Т. через торрент
    Скачать бесплатно Агенты Щ.И.Т.
    Агенты Щ.И.Т. скачать торрент
    Агенты Щ.И.Т. смотреть онлайн
    Cкачать фильм Агенты Щ.И.Т. бесплатно
    Агенты Щ.И.Т. скачать торрент в хорошем качестве
    Агенты Щ.И.Т. смотреть онлайн бесплатно в хорошем качестве


    Вы не можете начинать темы
    Вы не можете отвечать на сообщения
    Вы не можете редактировать свои сообщения
    Вы не можете удалять свои сообщения
    Вы не можете голосовать в опросах
    Вы не можете прикреплять файлы к сообщениям
    Вы можете скачивать файлы