Достать ножи: Стеклянная луковица

MVO

Добыча

Дубляж

Уэнсдэй

1 сезон

Тор

Дубляж

13 клиническая

1 сезон

Жестокая ночь

MVO

Одни из нас

1 сезон

Deluxe

pack

Рекомендуем

30

Пиратка

ВАЖНО

ВАЖНО

Ghostwire

Пиратка

jed

RePack

nioh2

RePack

RDR2

RePack

NEED FOR SPEED™ PAYBACK

RePack

скачать торрент

Кинопоиск HD

Острые козырьки 6 сезон

6 сезон

FAR CRY 6

RePack

скачать торрент

Лицензия

скачать торрент

MVO

1

1 сезон

скачать торрент

1 сезон

скачать торрент

Лицензия

  

Первый мститель: Противостояние / Captain America: Civil War (Энтони Руссо, Джо Руссо) [2016, Фантастика, боевик, приключения, UHD BDRip 2160p] Дубляж (rus, ukr) [iTunes] +AVO+MVO

Первый мститель: Противостояние через торрент piratbit.org

Размер: 21.79 GB | Добавлен: 3 года 7 мес. назад | Торрент скачан:50 раз
Смотреть онлайн | Скачать | Поддержите нас   

19-06-2019 10:38 Первый мститель: Противостояние Скачать торрент  

Первый мститель: Противостояние / Captain America: Civil War
Год выпуска: 2016
Страна: США
Жанр: Фантастика, боевик, приключения
Продолжительность: 02:27:41
Перевод:

#1: Дублированный | iTunes
#2: Авторский | Гаврилов
#3: Профессиональный многоголосый | FocusStudio

Субтитры: Русские (forced, full), английские (forced, full, SDH)

Режиссер: Энтони Руссо, Джо Руссо

rating

В ролях:

Крис Эванс, Роберт Дауни мл., Скарлетт Йоханссон, Себастьян Стэн, Энтони Маки, Дон Чидл, Джереми Реннер, Чэдвик Боузмэн, Пол Беттани, Элизабет Олсен

Описание:

После того, как Мстители помешали космическому засланцу отжать кусок исконных земель у мирного восточноевропейского государства и совершили еще множество глупых подвигов, они успешно приватизировали мир во всем мире. Однако, не все готовы терпеть супергеройские методы, зачастую имеющие разрушительные последствия и влекущие за собой человеческие жертвы. Стремясь урегулировать деятельность людей с расширенными возможностями и вынуждая их работать на государственные службы, правительство вводит "Акт о регистрации супергероев". Стив Роджерс считает этот занимательный документ прямым ограничением своих прав и свобод. Он выступает против нового порядка. Тони Старк, напротив, поддерживает любую форму контроля. У каждого из них находятся свои сторонники в среде супергероев. Коренное разногласие в этом принципиальном вопросе приводит к идеологическому расколу Мстителей, а затем и к открытому конфликту между двумя супергеройскими фракциями. И пока Капитан Америка и Железный человек устраивают групповые дуэли, некий арийский иллюминат Гельмут Земо претворяет в жизнь свой коварный план, пользуясь досадными трениями между величайшими героями Земли.

Качество: UHD BDRip 2160p
Формат: MKV

Видео: H.265/HEVC HDR, 3840x1600, (2.40:1), ~16.6 Mbps, 23.976 fps
Аудио#1: 48 kHz, AC3, 5.1, 384 Kbps | iTunes | RUS |
Аудио#2: 48 kHz, AC3, 5.1, 448 Kbps | Гаврилов | RUS |
Аудио#3: 48 kHz, DTS, 5.1, 1509 Kbps | FocusStudio | RUS |
Аудио#4: 48 kHz, AC3, 5.1, 640 Kbps | Дублированный | UKR |
Аудио#5: 48 kHz, DTS, 5.1, 1509 Kbps | Оригинал | ENG |
скриншот  скриншот  скриншот  скриншот  

General
Unique ID : 124022535324637378176198373416527833504 (0x5D4DDF17BE750F3B661B40C70B05A9A0)
Complete name : S:CPTN_AMRC_CWL_WR_2016_UHD-BDRip_HDR_BT2020_x265_2160p.mkv
Format : Matroska
Format version : Version 4
File size : 21.8 GiB
Duration : 2 h 27 min
Overall bit rate : 21.1 Mb/s
Movie name : Captain America: Civil War (2016) UHD-BDRip HDR10 BT2020 x265 2160p -BLUEBIRD
Encoded date : UTC 2019-06-18 10:28:12
Writing application : mkvmerge v34.0.0 ('Sight and Seen') 64-bit
Writing library : libebml v1.3.7 + libmatroska v1.5.0

Video
ID : 1
Format : HEVC
Format/Info : High Efficiency Video Coding
Format profile : Main 10@L5.1@High
HDR format : SMPTE ST 2086, HDR10 compatible
Codec ID : V_MPEGH/ISO/HEVC
Duration : 2 h 27 min
Bit rate : 16.6 Mb/s
Width : 3 840 pixels
Height : 1 600 pixels
Display aspect ratio : 2.40:1
Frame rate mode : Constant
Frame rate : 23.976 (24000/1001) FPS
Color space : YUV
Chroma subsampling : 4:2:0 (Type 2)
Bit depth : 10 bits
Bits/(Pixel*Frame) : 0.113
Stream size : 17.1 GiB (79%)
Title : CPTN_AMRC_CWL_WR_2016_UHD-BDRip_HDR_BT2020_x265_2160p -KirDan
Writing library : x265 3.0_Au+32-a46ded2c1411:[Windows][GCC 9.1.0][64 bit] 10bit
Encoding settings : cpuid=1111039 / frame-threads=4 / numa-pools=16,16,16,16 / wpp / no-pmode / pme / no-psnr / no-ssim / log-level=2 / input-csp=1 / input-res=3840x1600 / interlace=0 / total-frames=212475 / level-idc=51 / high-tier=1 / uhd-bd=0 / ref=4 / no-allow-non-conformance / repeat-headers / annexb / aud / no-hrd / info / hash=0 / no-temporal-layers / no-open-gop / min-keyint=23 / keyint=250 / gop-lookahead=0 / bframes=8 / b-adapt=2 / b-pyramid / bframe-bias=0 / rc-lookahead=72 / lookahead-slices=6 / scenecut=40 / radl=0 / no-splice / no-intra-refresh / ctu=64 / min-cu-size=8 / no-rect / no-amp / max-tu-size=32 / tu-inter-depth=1 / tu-intra-depth=1 / limit-tu=0 / rdoq-level=2 / dynamic-rd=1.00 / no-ssim-rd / signhide / no-tskip / nr-intra=0 / nr-inter=0 / no-constrained-intra / strong-intra-smoothing / max-merge=5 / limit-refs=1 / no-limit-modes / me=3 / subme=7 / merange=57 / temporal-mvp / weightp / no-weightb / no-analyze-src-pics / deblock=0:0 / no-sao / no-sao-non-deblock / rd=4 / early-skip / no-rskip / no-fast-intra / no-tskip-fast / cu-lossless / no-b-intra / no-splitrd-skip / rdpenalty=2 / psy-rd=1.40 / psy-rdoq=1.00 / no-rd-refine / no-lossless / cbqpoffs=0 / crqpoffs=0 / rc=crf / crf=18.0 / qcomp=0.60 / qpstep=3 / stats-write=0 / stats-read=0 / vbv-maxrate=160000 / vbv-bufsize=160000 / vbv-init=0.9 / crf-max=0.0 / crf-min=0.0 / ipratio=1.40 / pbratio=1.30 / aq-mode=1 / aq-strength=0.80 / no-cutree / zone-count=2 / zones: / start-frame=201362 / end-frame=210763 / bitrate-factor=0.500000 / zones: / start-frame=210764 / end-frame=212474 / bitrate-factor=1.000000 / no-strict-cbr / qg-size=32 / no-rc-grain / qpmax=69 / qpmin=0 / no-const-vbv / sar=1 / overscan=0 / videoformat=5 / range=0 / colorprim=9 / transfer=16 / colormatrix=9 / chromaloc=1 / chromaloc-top=2 / chromaloc-bottom=2 / display-window=0 / master-display=G(13250,34500)B(7500,3000)R(34000,16000)WP(15635,16450)L(10000000,20)cll=717,578 / min-luma=0 / max-luma=1023 / log2-max-poc-lsb=8 / vui-timing-info / vui-hrd-info / slices=1 / no-opt-qp-pps / no-opt-ref-list-length-pps / no-multi-pass-opt-rps / scenecut-bias=0.05 / no-opt-cu-delta-qp / no-aq-motion / hdr / hdr-opt / no-dhdr10-opt / no-idr-recovery-sei / analysis-reuse-level=5 / scale-factor=0 / refine-intra=0 / refine-inter=0 / refine-mv=0 / refine-ctu-distortion=0 / no-limit-sao / ctu-info=0 / no-lowpass-dct / refine-analysis-type=0 / copy-pic=1 / max-ausize-factor=1.0 / no-dynamic-refine / no-single-sei / no-hevc-aq / no-svt / no-field / qp-adaptation-range=1.00
Language : English
Default : Yes
Forced : No
Color range : Limited
Color primaries : BT.2020
Transfer characteristics : PQ
Matrix coefficients : BT.2020 non-constant
Mastering display color pri : Display P3
Mastering display luminance : min: 0.0020 cd/m2, max: 1000 cd/m2
Maximum Content Light Level : 717 cd/m2
Maximum Frame-Average Light : 578 cd/m2

Audio #1
ID : 2
Format : AC-3
Format/Info : Audio Coding 3
Commercial name : Dolby Digital
Codec ID : A_AC3
Duration : 2 h 27 min
Bit rate mode : Constant
Bit rate : 384 kb/s
Channel(s) : 6 channels
Channel layout : L R C LFE Ls Rs
Sampling rate : 48.0 kHz
Frame rate : 31.250 FPS (1536 SPF)
Bit depth : 16 bits
Compression mode : Lossy
Stream size : 406 MiB (2%)
Title : iTunes
Language : Russian
Service kind : Complete Main
Default : Yes
Forced : No

Audio #2
ID : 3
Format : DTS
Format/Info : Digital Theater Systems
Codec ID : A_DTS
Duration : 2 h 27 min
Bit rate mode : Constant
Bit rate : 1 509 kb/s
Channel(s) : 6 channels
Channel layout : C L R Ls Rs LFE
Sampling rate : 48.0 kHz
Frame rate : 93.750 FPS (512 SPF)
Bit depth : 24 bits
Compression mode : Lossy
Stream size : 1.56 GiB (7%)
Title : MVO FocusStudio
Language : Russian
Default : No
Forced : No

Audio #3
ID : 4
Format : AC-3
Format/Info : Audio Coding 3
Commercial name : Dolby Digital
Codec ID : A_AC3
Duration : 2 h 27 min
Bit rate mode : Constant
Bit rate : 640 kb/s
Channel(s) : 6 channels
Channel layout : L R C LFE Ls Rs
Sampling rate : 48.0 kHz
Frame rate : 31.250 FPS (1536 SPF)
Bit depth : 16 bits
Compression mode : Lossy
Stream size : 676 MiB (3%)
Title : Дубляж
Language : Ukrainian
Service kind : Complete Main
Default : No
Forced : No

Audio #4
ID : 5
Format : AC-3
Format/Info : Audio Coding 3
Commercial name : Dolby Digital
Codec ID : A_AC3
Duration : 2 h 27 min
Bit rate mode : Constant
Bit rate : 448 kb/s
Channel(s) : 6 channels
Channel layout : L R C LFE Ls Rs
Sampling rate : 48.0 kHz
Frame rate : 31.250 FPS (1536 SPF)
Bit depth : 16 bits
Compression mode : Lossy
Stream size : 473 MiB (2%)
Title : VO Gavrilov
Language : Russian
Service kind : Complete Main
Default : No
Forced : No

Audio #5
ID : 6
Format : DTS
Format/Info : Digital Theater Systems
Codec ID : A_DTS
Duration : 2 h 27 min
Bit rate mode : Constant
Bit rate : 1 509 kb/s
Channel(s) : 6 channels
Channel layout : C L R Ls Rs LFE
Sampling rate : 48.0 kHz
Frame rate : 93.750 FPS (512 SPF)
Bit depth : 24 bits
Compression mode : Lossy
Stream size : 1.56 GiB (7%)
Language : English
Default : No
Forced : No

Text #1
ID : 7
Format : UTF-8
Codec ID : S_TEXT/UTF8
Codec ID/Info : UTF-8 Plain Text
Duration : 2 h 24 min
Bit rate : 2 b/s
Count of elements : 57
Stream size : 2.85 KiB (0%)
Title : forced
Language : Russian
Default : Yes
Forced : Yes

Text #2
ID : 8
Format : UTF-8
Codec ID : S_TEXT/UTF8
Codec ID/Info : UTF-8 Plain Text
Duration : 2 h 25 min
Bit rate : 76 b/s
Count of elements : 1728
Stream size : 81.5 KiB (0%)
Title : full
Language : Russian
Default : No
Forced : No

Text #3
ID : 9
Format : UTF-8
Codec ID : S_TEXT/UTF8
Codec ID/Info : UTF-8 Plain Text
Duration : 2 h 26 min
Bit rate : 78 b/s
Count of elements : 1837
Stream size : 83.8 KiB (0%)
Title : full [MBB]
Language : Russian
Default : No
Forced : No

Text #4
ID : 10
Format : UTF-8
Codec ID : S_TEXT/UTF8
Codec ID/Info : UTF-8 Plain Text
Duration : 1 h 44 min
Bit rate : 1 b/s
Count of elements : 59
Stream size : 1.16 KiB (0%)
Title : forced
Language : English
Default : No
Forced : No

Text #5
ID : 11
Format : UTF-8
Codec ID : S_TEXT/UTF8
Codec ID/Info : UTF-8 Plain Text
Duration : 2 h 26 min
Bit rate : 55 b/s
Count of elements : 2105
Stream size : 59.1 KiB (0%)
Title : SDH
Language : English
Default : No
Forced : No

Text #6
ID : 12
Format : UTF-8
Codec ID : S_TEXT/UTF8
Codec ID/Info : UTF-8 Plain Text
Duration : 2 h 25 min
Bit rate : 50 b/s
Count of elements : 1865
Stream size : 54.2 KiB (0%)
Title : full
Language : English
Default : No
Forced : No

Menu
00:00:00.000 : en:Chapter 01
00:09:01.957 : en:Chapter 02
00:13:04.991 : en:Chapter 03
00:21:03.345 : en:Chapter 04
00:27:53.380 : en:Chapter 05
00:31:57.289 : en:Chapter 06
00:35:08.396 : en:Chapter 07
00:42:58.449 : en:Chapter 08
00:52:04.621 : en:Chapter 09
01:05:39.101 : en:Chapter 10
01:16:41.637 : en:Chapter 11
01:22:28.777 : en:Chapter 12
01:29:29.488 : en:Chapter 13
01:34:09.769 : en:Chapter 14
01:45:38.582 : en:Chapter 15
01:55:54.322 : en:Chapter 16
02:02:35.055 : en:Chapter 17
02:12:14.176 : en:Chapter 18
02:18:29.384 : en:Chapter 19
02:27:41.727 : en:Chapter 20




Скачать Первый мститель: Противостояние через торрент http://img16.lostpic.net/2019/04/16/5f3b37e60088ca1f811a10d9b2bb6182.jpg Скачать, смотреть онлайн Первый мститель: Противостояние бесплантно в хорошем качестве Описание: После того, как Мстители помешали космическому засланцу отжать кусок исконных земель у мирного восточноевропейского государства и ... 10 10 2
Торрент: Зарегистрирован [2019-06-19 10:38] · скачан: 50 раз
Статус: √ проверено
Размер: 21.79 GB
Как cкачать? Как скачать Первый мститель: Противостояние через торрент | UTorrent

% Раздел Тема Автор DL S | L
Ultra HD (UHD: 2K, 4K, 8K) [ 58.4 GB ] Первый мститель: Противостояние / Captain America: Civil War | iTunes | 2160p bober100 Скачать
1 | 0

28-11-2019 20:33  


Отключить вcю реклaмy на сайте, в т.ч. и в плеере онлайн просмотра!

    Дорогой пользователь! Огромная просьба, поблагодарите релизера, оцените раздачу и оставьте свои комментарий, если Вы скачали Первый мститель: Противостояние через торрент бесплатно!!
    Комментировать посты могут только пользователи прошедшие не сложную регистрацию
    Показать сообщения:    


    Первый мститель: Противостояние через торрент
    Скачать бесплатно Первый мститель: Противостояние
    Первый мститель: Противостояние скачать торрент
    Первый мститель: Противостояние смотреть онлайн
    Cкачать фильм Первый мститель: Противостояние бесплатно
    Первый мститель: Противостояние скачать торрент в хорошем качестве
    Первый мститель: Противостояние смотреть онлайн бесплатно в хорошем качестве
    Вы не можете начинать темы
    Вы не можете отвечать на сообщения
    Вы не можете редактировать свои сообщения
    Вы не можете удалять свои сообщения
    Вы не можете голосовать в опросах
    Вы не можете прикреплять файлы к сообщениям
    Вы можете скачивать файлы
    Первый мститель: Противостояние / Captain America: Civil War [2016, Фантастика, боевик, приключения, UHD BDRip 2160p] Дубляж [iTunes] +AVO+MVO смотреть онлайн, скачать торрент picoco.icu