Ссылка на приватное зеркало нашего сайта всего за 1$. Внимание количество ограничено!!!

2 сезон

iTunes

1 сезон

1

iTunes

iTunes

iTunes

1 сезон

RePack

30

ИГРА 18+

pack

ВАЖНО

!!Акция!!

Alien_RageХит недели

RePack

MK11
pack

Забери бонус

RePack

jed

!!Акция!!

Alien_Rage

RePack

fifa19

RePack

Assassins Creed: Odyssey

RePack

NEED FOR SPEED™ PAYBACK

4 сезон

9 сезон

Бесстыжие 9 сезон

Все сериалы

все сериалы на PB.wtf

RePack

FAR CRY 5
  

Няня / Няня на ночь / The Night Sitter (Абель Брюн, Джон Рокко) [2018, ужасы, комедия, BDRip 1080p] MVO [т/к "Киноужас"] piratbit.org

Няня через торрент piratbit.org

Раздают: 3 [ 248 KB/s ]
Размер: 7.55 GB | Добавлен: 6 д. назад | Торрент скачан:20 раз
Скачать  

19-06-2019 11:00 Няня Скачать торрент  

Няня | Няня на ночь | The Night Sitter
Год выпуска: 2018
Страна: США
Студия: Pelican Films, Roller Disco Massacre
Жанр: ужасы, комедия
Продолжительность: 01:28:59
Перевод: Профессиональный (многоголосый) | т/к "Киноужас"
Субтитры: английские

Режиссер: Абель Брюн, Джон Рокко

rating

В ролях: Элиз Дюфур, Джек Чемпион, Жермен Риверс, Эмбер Нюкам, Бенедикт Лармор, Бен Барлоу, Бэйли Кэмпбелл, Джо Вальц, Дианна Миски, Мэнни Сэндоу, Виктория Грэхэм, Аликс Либби, Аманда Моралес, Деанна Рашелл, Джазмин Юртин

Описание: Мошенница прикидывается безобидной няней Эмбер, чтобы обокрасть Теда Хупера - богатого поклонника оккультизма, живущего в большом доме вместе с Кевином, сыном-затворником. Пока банда Эмбер грабит дом, Кевин случайно находит древний артефакт и освобождает трех ведьм, известных как Три Матери. В то время как потусторонние создания жестко убивают подельников Эмбер одного за другим, девушка вынуждена объединиться с Кевином, чтобы пережить ночь.

Качество: BDRip 1080p
Формат: MKV

Видео: MPEG-4 AVC, 11.6 Mбит/с, 1920x820, 23.976 кадр/с
Аудио #1: Русский (АС3, 2 ch, 192 Кбит/с, 48.0 KHz) Профессиональный (многоголосый, закадровый) т/к "Киноужас"
Аудио #2: Английский (АС3, 6 ch, 448 Кбит/с, 48.0 KHz)
скриншот  скриншот  скриншот  скриншот  скриншот  

Источник: The.Night.Sitter.2018.1080p.BluRay.x264-HANDJOB
General
Unique ID: 251760244972816969170364144085254938360 (0xBD67426BF77B0BFCB41BE2B9A4B61EF8)
Complete name: The.Night.Sitter.2018.BDRip.1080p.mkv
Format: Matroska
Format version: Version 4
File size: 7.55 GiB
Duration: 1 h 28 min
Overall bit rate: 12.3 Mb/s
Encoded date: UTC 2020-10-05 20:18:10
Writing application: mkvmerge v7.1.0 ('Good Love') 64bit built on Jul 27 2014 13:06:55
Writing library: libebml v1.3.0 + libmatroska v1.4.1

Video
ID: 1
Format: AVC
Format/Info: Advanced Video Codec
Format profile: High@L4.1
Format settings: CABAC / 5 Ref Frames
Format settings, CABAC: Yes
Format settings, Reference fra: 5 frames
Codec ID: V_MPEG4/ISO/AVC
Duration: 1 h 28 min
Bit rate: 11.6 Mb/s
Width: 1 920 pixels
Height: 820 pixels
Display aspect ratio: 2.35:1
Frame rate mode: Constant
Frame rate: 23.976 (24000/1001) FPS
Color space: YUV
Chroma subsampling: 4:2:0
Bit depth: 8 bits
Scan type: Progressive
Bits/(Pixel*Frame): 0.308
Stream size: 7.15 GiB (95%)
Writing library: x264 core 157 r2935 545de2f
Encoding settings: cabac=1 / ref=5 / deblock=1:-3:-3 / analyse=0x3:0x133 / me=umh / subme=10 / psy=1 / psy_rd=1.00:0.00 / mixed_ref=1 / me_range=32 / chroma_me=1 / trellis=2 / 8x8dct=1 / cqm=0 / deadzone=21, 11 / fast_pskip=0 / chroma_qp_offset=-2 / threads=9 / lookahead_threads=2 / sliced_threads=0 / nr=0 / decimate=0 / interlaced=0 / bluray_compat=0 / constrained_intra=0 / bframes=16 / b_pyramid=2 / b_adapt=2 / b_bias=0 / direct=3 / weightb=1 / open_gop=0 / weightp=2 / keyint=240 / keyint_min=24 / scenecut=40 / intra_refresh=0 / rc_lookahead=60 / rc=crf / mbtree=0 / crf=17.5 / qcomp=0.60 / qpmin=0 / qpmax=69 / qpstep=4 / vbv_maxrate=62500 / vbv_bufsize=78125 / crf_max=0.0 / nal_hrd=none / filler=0 / ip_ratio=1.40 / pb_ratio=1.30 / aq=2:1.00
Language: English
Default: Yes
Forced: No
Color range: Limited
Color primaries: BT.709
Transfer characteristics: BT.709
Matrix coefficients: BT.709

Audio #1
ID: 2
Format: AC-3
Format/Info: Audio Coding 3
Commercial name: Dolby Digital
Codec ID: A_AC3
Duration: 1 h 28 min
Bit rate mode: Constant
Bit rate: 192 kb/s
Channel(s): 2 channels
Channel layout: L R
Sampling rate: 48.0 kHz
Frame rate: 31.250 FPS (1536 SPF)
Compression mode: Lossy
Stream size: 121 MiB (2%)
Title: MVO | т/к "Киноужас"
Language: Russian
Service kind: Complete Main
Default: Yes
Forced: No

Audio #2
ID: 3
Format: AC-3
Format/Info: Audio Coding 3
Commercial name: Dolby Digital
Codec ID: A_AC3
Duration: 1 h 28 min
Bit rate mode: Constant
Bit rate: 448 kb/s
Channel(s): 6 channels
Channel layout: L R C LFE Ls Rs
Sampling rate: 48.0 kHz
Frame rate: 31.250 FPS (1536 SPF)
Compression mode: Lossy
Stream size: 283 MiB (4%)
Language: English
Service kind: Complete Main
Default: No
Forced: No

Text
ID: 4
Format: UTF-8
Codec ID: S_TEXT/UTF8
Codec ID/Info: UTF-8 Plain Text
Duration: 1 h 26 min
Bit rate: 59 b/s
Count of elements: 1718
Stream size: 38.1 KiB (0%)
Language: English
Default: No
Forced: No

Menu
00:00:00.000: en:Chapter 01
00:11:29.189: en:Chapter 02
00:19:51.691: en:Chapter 03
00:31:27.886: en:Chapter 04
00:43:48.126: en:Chapter 05
00:56:56.413: en:Chapter 06
01:10:06.703: en:Chapter 07
01:20:04.800: en:Chapter 08
01:25:06.101: en:Chapter 09

piratbit.org



Скачать Няня через торрент http://c.radikal.ru/c18/2010/ce/89769c9880fc.jpg Скачать фильм Няня через торрент бесплантно в хорошем качестве Описание: Мошенница прикидывается безобидной няней Эмбер, чтобы обокрасть Теда Хупера - богатого поклонника оккультизма, живущего в большом ... 8 10 3
Торрент: Зарегистрирован [2020-10-17 17:42] · скачан: 20 раз
Статус: √ проверено
Размер: 7.55 GB
Как cкачать? Как скачать Няня через торрент | qTorrent

28-11-2019 20:33  

Отключить всю рекламу на сайте

    Дорогой пользователь! Огромная просьба, поблагодарите релизера, оцените раздачу и оставьте свои комментарий, если Вы скачали Няня через торрент бесплатно! Внесите свою лепту в развитие PiratBit!
    Комментировать посты могут только пользователи прошедшие не сложную регистрацию
    Показать сообщения:    

    Няня через торрент
    Скачать бесплатно Няня
    Няня скачать торрент
    Няня смотреть онлайн
    Cкачать фильм Няня бесплатно
    Няня скачать торрент в хорошем качестве
    Няня смотреть онлайн бесплатно в хорошем качестве


    Вы не можете начинать темы
    Вы не можете отвечать на сообщения
    Вы не можете редактировать свои сообщения
    Вы не можете удалять свои сообщения
    Вы не можете голосовать в опросах
    Вы не можете прикреплять файлы к сообщениям
    Вы можете скачивать файлы