1 сезон

3 сезон

iTunes

1

iTunes

DUB Netflix

iTunes

13

1 сезон

RePack

30

Deluxe

pack

Легкие деньги

ВАЖНО

ИГРА 18+

pack

RePack

MK11

RePack

jed

RePack

fifa19

RePack

RDR2

RePack

NEED FOR SPEED™ PAYBACK

4 сезон

9 сезон

Бесстыжие 9 сезон

Все сериалы

все сериалы на PB.wtf

RePack

FAR CRY 5

Anonymous, добрый вечер, мы не успеваем до 1 числа собрать деньги на оплату серверов, помогите нам пожалуйста в это трудное время. В качестве благодарности мы отключим Вам всю рекламу на сайте (укажите свой ник в строку Ваше имя)!

×
  
Magnet ссылка

В Москве всегда солнечно / Сезон: 1 / Серии: 1-16 из 16 (Александр Наумов (II) [2014, комедия, WEB-DL 1080p] piratbit.org

В Москве всегда солнечно через торрент piratbit.org

Размер: 13.39 GB | Добавлен: 2 года назад | Торрент скачан:51 раз
Скачать  

20-06-2019 02:16 В Москве всегда солнечно Скачать торрент  

В Москве всегда солнечно Год выпуска: 2014
Страна: Россия
Жанр: комедия
Продолжительность: ~ 00:24:00
Перевод: Не требуется
Субтитры: отсутствуют

Режиссер: Александр Наумов (II)

rating

В ролях: Константин Крюков, Александра Ребенок, Иван Куприенко, Дмитрий Астрахан, Ирина Апексимова, Игорь Жижикин, Сергей Сивохо, Ингрид Олеринская, Светлана Павлова, Михаил Крылов, Геннадий Матвеев, Сергей Фролов (IV), Юлия Юрченко, Елена Трофимова, Николай Лунин, Павел Абраменков, Николай Алипа, Екатерина Мадалинская, Екатерина Берлинская

Описание: Крепкая дружба, настоящая любовь, преданность идеалам, благородство и достоинство, скромность и доброта — все это не имеет никакого отношения к героям сериала «В Москве всегда солнечно». Четверо молодых героев: Сергей и Алена Ковалевы, Максим Борисенко и Роман Макаров. Они вместе учились в школе. У них есть свой бизнес — пивной бар «Филадельфия». Но доходов он почти не приносит. Все их планы и надежды — любовные и денежные — рушатся, сталкиваясь с реальностью. Причина этому — их эгоизм, лень и глупость.И только природная жизнерадостность вместе с уже отмеченной глупостью помогают им сохранять оптимизм и не предаваться унынию.

Качество: WEB-DL 1080p
Формат: MKV

Видео: MPEG-4 AVC, ~ 5000 Кбит/с, 1920x1080
Аудио: 48 kHz, AC3 Dolby Digital, 2/0 (L,R) ch, ~192 kbps avg
скриншот  скриншот  скриншот  скриншот  

Общее
Уникальный идентификатор : 205019913239580389766187778801153414125 (0x9A3D66258B4CB202898F8046E57113ED)
Полное имя : D:\V.Moskve.vsegda.solnechno.2014.WEB-DL.(1080p).ExKinoRay\V.Moskve.vsegda.solnechno.e01.2014.WEB-DL.(1080p).ExKinoRay.mkv
Формат : Matroska
Версия формата : Version 2
Размер файла : 845 Мбайт
Продолжительность : 23 м. 4 с.
Режим общего битрейта : Постоянный
Общий поток : 5124 Кбит/сек
Дата кодирования : UTC 2019-06-17 13:27:45
Программа кодирования : mkvmerge v5.8.0 ('No Sleep / Pillow') built on Sep 2 2012 15:37:04
Библиотека кодирования : libebml v1.2.3 + libmatroska v1.3.0

Видео
Идентификатор : 1
Формат : AVC
Формат/Информация : Advanced Video Codec
Профиль формата : Baseline@L4
Параметр CABAC формата : Нет
Параметр RefFrames формата : 4 кадра
Идентификатор кодека : V_MPEG4/ISO/AVC
Продолжительность : 23 м. 4 с.
Вид битрейта : Постоянный
Битрейт : 5000 Кбит/сек
Ширина : 1920 пикселей
Высота : 1080 пикселей
Соотношение сторон : 16:9
Режим частоты кадров : Постоянный
Частота кадров : 25,000 кадров/сек
Стандарт вещания : PAL
Цветовое пространство : YUV
Субдискретизация насыщенности : 4:2:0
Битовая глубина : 8 бит
Тип развёртки : Прогрессивная
Бит/(Пиксели*Кадры) : 0.096
Размер потока : 797 Мбайт (94%)
Язык : Russian
Default : Да
Forced : Нет
Цветовой диапазон : Limited
Основные цвета : BT.709
Характеристики трансфера : BT.709
Коэффициенты матрицы : BT.709

Аудио
Идентификатор : 2
Формат : AC-3
Формат/Информация : Audio Coding 3
Расширение режима : CM (complete main)
Параметр Endianness формата : Big
Идентификатор кодека : A_AC3
Продолжительность : 23 м. 4 с.
Вид битрейта : Постоянный
Битрейт : 192 Кбит/сек
Каналы : 2 канала
Расположение каналов : Front: L R
Частота : 48,0 КГц
Частота кадров : 31,250 кадров/сек (1536 spf)
Метод сжатия : С потерями
Размер потока : 31,7 Мбайт (4%)
Язык : Russian
Default : Да
Forced : Нет

piratbit.org



Скачать В Москве всегда солнечно через торрент https://a.radikal.ru/a30/1906/47/4e553aa0eb6c.jpg Скачать фильм В Москве всегда солнечно через торрент бесплантно в хорошем качестве Описание: Крепкая дружба, настоящая любовь, преданность идеалам, благородство и достоинство, скромность и доброта — все это не имеет ... 10 10 3
Торрент: Зарегистрирован [2019-06-20 02:16] · скачан: 51 раз
Статус: √ проверено
Размер: 13.39 GB
Как cкачать? Как скачать В Москве всегда солнечно через торрент | UTorrent

28-11-2019 20:33  

Отключить всю рекламу на сайте


    Дорогой пользователь! Огромная просьба, поблагодарите релизера, оцените раздачу и оставьте свои комментарий, если Вы скачали В Москве всегда солнечно через торрент бесплатно! Внесите свою лепту в развитие PiratBit!
    Комментировать посты могут только пользователи прошедшие не сложную регистрацию
    Показать сообщения:    

    В Москве всегда солнечно через торрент
    Скачать бесплатно В Москве всегда солнечно
    В Москве всегда солнечно скачать торрент
    В Москве всегда солнечно смотреть онлайн
    Cкачать фильм В Москве всегда солнечно бесплатно
    В Москве всегда солнечно скачать торрент в хорошем качестве
    В Москве всегда солнечно смотреть онлайн бесплатно в хорошем качестве


    Вы не можете начинать темы
    Вы не можете отвечать на сообщения
    Вы не можете редактировать свои сообщения
    Вы не можете удалять свои сообщения
    Вы не можете голосовать в опросах
    Вы не можете прикреплять файлы к сообщениям
    Вы можете скачивать файлы