Мега распродажа FORZA HORIZON 4 ULTIMATE+ВСЕ DLC+ОНЛАЙН всего за 499р. 349 руб. (супер цена). Внимание количество ограничено!!!

iTunes

1+1

iTunes

мы

iTunes

1

1 сезон

Чернобыль

1 сезон

Ральф против интернета

Лицензия

ПШазам

8 сезон

Игра престолов

Лицензия

30
pack

ВАЖНО

!!Акция!!

Alien_RageХит недели

RePack

Resident Evil 21

ИГРА 18+

pack

RePack

Metro:Exodus

!!Акция!!

Alien_Rage

RePack

fifa19

RePack

Assassins Creed: Odyssey

RePack

NEED FOR SPEED™ PAYBACK

3 сезон

9 сезон

Бесстыжие 9 сезон

Все сериалы

все сериалы на PB.wtf

RePack

FAR CRY 5
Ребята, катастрофически не хватает 2730р. для оплаты серверов за ИЮНЬ (всвязи с блокировками трафик упал в 3 раза), 1-2р., выручайте.
  

Бэтмен против Черепашек-ниндзя / Batman vs. Teenage Mutant Ninja Turtles (Джейк Касторена) [2019, Мультфильм, фэнтези, боевик, комедия, приключения, BDRip 1080p] 2xMVO [HDRezka Studio, Train Studio] piratbit.org

Бэтмен против Черепашек-ниндзя через торрент piratbit.org

Раздают: 37 [ 354 KB/s ]
Размер: 7.45 GB | Добавлен: 1 мес. 1 д. назад | Торрент скачан:351 раз
Скачать  

21-06-2019 06:49 Бэтмен против Черепашек-ниндзя Скачать торрент  

Бэтмен против Черепашек-ниндзя / Batman vs. Teenage Mutant Ninja Turtles
Год выпуска: 2019
Страна: США
Жанр: Мультфильм, фэнтези, боевик, комедия, приключения
Продолжительность: 01:27:02
Перевод:

Профессиональный (многоголосый) | HDRezka Studio
Любительский многоголосый | Train Studio

Субтитры: Русские (полные), английские (полные)

Режиссер: Джейк Касторена

rating

В ролях: Трой Бэйкер, Эрик Бауза, Даррен Крисс, Кайл Муни, Барон Вон, Карлос Аласраки, Кэс Анвар, Рэйчел Блум, Джон Ди Маджио, Кит Фергюсон

Описание: На исследовательскую лабораторию было совершено нападение. Защитник Готэма, просматривая записи камер видеонаблюдения, обратил внимание на стиль боя ниндзя и на то, что таинственные незнакомцы не были похожи на людей. Это означало только одно — в городе объявились новые преступники. В это время на безлюдной улице открылся люк канализации, откуда выглядывали четверо братьев — черепашки-ниндзя. Они прекрасно понимают, что некто будет продолжать воровать экспериментальные технологии для осуществления своего коварного плана. В их руках находится карта, на которой обозначены места возможных будущих ограблений. Теперь их цель — помешать таинственному врагу. Однако они даже не подозревают, с кем им предстоит столкнуться...

Качество: BDRip 1080p
Формат: MKV

Видео: 1920x1080 (16:9), 23,976 fps, x264 ~10,1 Mbps avg, 0.203 bit/pixel
Аудио#1: 48 kHz, AC3 Dolby Digital, 2 (L,R) ch, ~192.00 kbps avg | RUS (HDRezka Studio)
Аудио#2: 48 kHz, AC3 Dolby Digital, 3/2 (L,C,R,l,r) + LFE ch, ~448.00 kbps avg | RUS (Train Studio)
Аудио#3: 48 kHz, DTS Dolby Theater System, 3/2 (L,C,R,l,r) + LFE ch, ~1 509.00 kbps avg | ENG
скриншот  скриншот  скриншот  скриншот  скриншот  

Общее
Уникальный идентификатор : 216971532592291856268277403260935252141 (0xA33B3279BA252FB38BE248B0F244A8AD)
Полное имя : D:ЗагрузкиBatman.Vs.Teenage.Mutant.Ninja.Turtles.2019.x264.BDRip.(1080p).OlLanDGroup.mkv
Формат : Matroska
Версия формата : Version 4 / Version 2
Размер файла : 7,45 Гбайт
Продолжительность : 1 ч. 27 м.
Общий поток : 12,2 Мбит/сек
Название фильма : Бэтмена против Черепашек-ниндзя.2019.Rip by: ollan
Дата кодирования : UTC 2019-06-20 22:47:34
Программа кодирования : mkvmerge v6.5.0 ('Isn't she lovely') built on Oct 20 2013 12:50:05
Библиотека кодирования : libebml v1.3.0 + libmatroska v1.4.1
Обложка : Yes
Attachments : Cover - Batman.Vs.Teenage.Mutant.Ninja.Turtles.png

Видео
Идентификатор : 1
Формат : AVC
Формат/Информация : Advanced Video Codec
Профиль формата : High@L4.1
Настройки формата : CABAC / 4 Ref Frames
Параметр CABAC формата : Да
Параметр ReFrames формата : 4 кадра
Идентификатор кодека : V_MPEG4/ISO/AVC
Продолжительность : 1 ч. 27 м.
Битрейт : 10,1 Мбит/сек
Ширина : 1920 пикселей
Высота : 1080 пикселей
Соотношение сторон : 16:9
Режим частоты кадров : Постоянный
Частота кадров : 23,976 (24000/1001) кадра/сек
Цветовое пространство : YUV
Субдискретизация насыщенности : 4:2:0
Битовая глубина : 8 бит
Тип развёртки : Прогрессивная
Бит/(Пиксели*Кадры) : 0.203
Размер потока : 5,99 Гбайт (80%)
Библиотека кодирования : x264 core 146 r2538 121396c
Настройки программы : cabac=1 / ref=4 / deblock=1:-3:-3 / analyse=0x3:0x133 / me=umh / subme=11 / psy=1 / psy_rd=0.95:0.05 / mixed_ref=1 / me_range=64 / chroma_me=1 / trellis=2 / 8x8dct=1 / cqm=0 / deadzone=21,11 / fast_pskip=0 / chroma_qp_offset=-3 / threads=12 / lookahead_threads=3 / sliced_threads=0 / nr=0 / decimate=0 / interlaced=0 / bluray_compat=0 / constrained_intra=0 / bframes=10 / b_pyramid=2 / b_adapt=2 / b_bias=0 / direct=3 / weightb=1 / open_gop=0 / weightp=2 / keyint=240 / keyint_min=23 / scenecut=40 / intra_refresh=0 / rc_lookahead=40 / rc=2pass / mbtree=0 / bitrate=10100 / ratetol=1.0 / qcomp=0.60 / qpmin=0 / qpmax=69 / qpstep=4 / cplxblur=20.0 / qblur=0.5 / vbv_maxrate=50000 / vbv_bufsize=62500 / nal_hrd=none / filler=0 / ip_ratio=1.40 / pb_ratio=1.30 / aq=1:1.00
Язык : English
Default : Да
Forced : Нет

Аудио #1
Идентификатор : 2
Формат : AC-3
Формат/Информация : Audio Coding 3
Идентификатор кодека : A_AC3
Продолжительность : 1 ч. 27 м.
Вид битрейта : Постоянный
Битрейт : 192 Кбит/сек
Каналы : 2 канала
Расположение каналов : Front: L R
Частота : 48,0 КГц
Частота кадров : 31,250 кадров/сек (1536 SPF)
Битовая глубина : 16 бит
Метод сжатия : С потерями
Размер потока : 120 Мбайт (2%)
Заголовок : MVO [HDRezka Studio]
Язык : Russian
Service kind : Complete Main
Default : Да
Forced : Нет

Аудио #2
Идентификатор : 3
Формат : AC-3
Формат/Информация : Audio Coding 3
Идентификатор кодека : A_AC3
Продолжительность : 1 ч. 27 м.
Вид битрейта : Постоянный
Битрейт : 448 Кбит/сек
Каналы : 6 каналов
Расположение каналов : Front: L C R, Side: L R, LFE
Частота : 48,0 КГц
Частота кадров : 31,250 кадров/сек (1536 SPF)
Битовая глубина : 16 бит
Метод сжатия : С потерями
Размер потока : 279 Мбайт (4%)
Заголовок : LVO [Train Studio]
Язык : Russian
Service kind : Complete Main
Default : Нет
Forced : Нет

Аудио #3
Идентификатор : 4
Формат : DTS
Формат/Информация : Digital Theater Systems
Идентификатор кодека : A_DTS
Продолжительность : 1 ч. 27 м.
Вид битрейта : Постоянный
Битрейт : 1509 Кбит/сек
Каналы : 6 каналов
Расположение каналов : Front: L C R, Side: L R, LFE
Частота : 48,0 КГц
Частота кадров : 93,750 кадра/сек (512 SPF)
Битовая глубина : 16 бит
Метод сжатия : С потерями
Размер потока : 941 Мбайт (12%)
Заголовок : [Original]
Язык : English
Default : Нет
Forced : Нет

Текст #1
Идентификатор : 5
Формат : UTF-8
Идентификатор кодека : S_TEXT/UTF8
Идентификатор кодека/Информация : UTF-8 Plain Text
Заголовок : Full
Язык : Russian
Default : Нет
Forced : Нет

Текст #2
Идентификатор : 6
Формат : UTF-8
Идентификатор кодека : S_TEXT/UTF8
Идентификатор кодека/Информация : UTF-8 Plain Text
Заголовок : Full
Язык : English
Default : Нет
Forced : Нет

Меню
00:00:00.000 : en:Chapter 01
00:09:08.548 : en:Chapter 02
00:21:14.856 : en:Chapter 03
00:32:21.230 : en:Chapter 04
00:41:15.055 : en:Chapter 05
00:50:39.661 : en:Chapter 06
01:00:42.096 : en:Chapter 07
01:11:20.526 : en:Chapter 08
01:23:55.572 : en:Chapter 09

piratbit.org



Скачать Бэтмен против Черепашек-ниндзя через торрент https://i110.fastpic.ru/big/2019/0620/fd/c62328438b0d90f51ecad55692d58ffd.jpg Скачать фильм Бэтмен против Черепашек-ниндзя через торрент бесплантно в хорошем качестве Описание: На исследовательскую лабораторию было совершено нападение. Защитник Готэма, просматривая записи камер видеонаблюдения, обратил ... 9.9 10 12
Торрент: Зарегистрирован [2019-06-21 06:49] · скачан: 351 раз
Статус: T временная
Размер: 7.45 GB
Как cкачать? Как скачать Бэтмен против Черепашек-ниндзя через торрент | qTorrent


>> Регистрируемся здесь <<






Отзывы и комментарии о схеме читаем и пишем здесь: ---> Отзывы и комментарии о схеме

Новые благодарочки в телеграм довольных пользователей:
скриншот   скриншот   скриншот   скриншот   скриншот

14-07-2019 20:03 Бэтмен против Черепашек-ниндзя Скачать торрент  

нет рипа гига на 1,5 ?piratbit.org



    Дорогой пользователь! Огромная просьба, поблагодарите релизера, оцените раздачу и оставьте свои комментарий, если Вы скачали Бэтмен против Черепашек-ниндзя через торрент бесплатно! Внесите свою лепту в развитие PiratBit!
    Комментировать посты могут только пользователи прошедшие не сложную регистрацию
    Показать сообщения:    

    Бэтмен против Черепашек-ниндзя через торрент
    Скачать бесплатно Бэтмен против Черепашек-ниндзя
    Бэтмен против Черепашек-ниндзя скачать торрент
    Бэтмен против Черепашек-ниндзя смотреть онлайн
    Cкачать фильм Бэтмен против Черепашек-ниндзя бесплатно
    Бэтмен против Черепашек-ниндзя скачать торрент в хорошем качестве
    Бэтмен против Черепашек-ниндзя смотреть онлайн бесплатно в хорошем качестве


    Вы не можете начинать темы
    Вы не можете отвечать на сообщения
    Вы не можете редактировать свои сообщения
    Вы не можете удалять свои сообщения
    Вы не можете голосовать в опросах
    Вы не можете прикреплять файлы к сообщениям
    Вы можете скачивать файлы