Мега распродажа FORZA HORIZON 4 ULTIMATE+ВСЕ DLC+ОНЛАЙН всего за 499р. 349 руб. (супер цена). Внимание количество ограничено!!!

iTunes

1+1

iTunes

мы

iTunes

1

1 сезон

Чернобыль

1 сезон

Ральф против интернета

Лицензия

ПШазам

8 сезон

Игра престолов

Лицензия

30
pack

ВАЖНО

!!Акция!!

Alien_RageХит недели

RePack

Resident Evil 21

ИГРА 18+

pack

RePack

Metro:Exodus

!!Акция!!

Alien_Rage

RePack

fifa19

RePack

Assassins Creed: Odyssey

RePack

NEED FOR SPEED™ PAYBACK

3 сезон

9 сезон

Бесстыжие 9 сезон

Все сериалы

все сериалы на PB.wtf

RePack

FAR CRY 5
Ребята, катастрофически не хватает 2730р. для оплаты серверов за ИЮНЬ (всвязи с блокировками трафик упал в 3 раза), 1-2р., выручайте.
  

Агенты Щ.И.Т. / Agents of S.H.I.E.L.D. / Сезон: 6 / Серии: 1-9 из 13 (Билл Джирхарт, Винс Мисиано, Джесси Бокко) [2019, фантастика, боевик, триллер, драма, приключения, WEB-DL 1080p] DUB [Невафильм] piratbit.org

Агенты Щ.И.Т. через торрент piratbit.org

Качают: 1 [ 0 KB/s ]
Размер: 24.53 GB | Добавлен: 9 д. назад | Торрент скачан:4 раза
Скачать  

21-06-2019 08:00 Агенты Щ.И.Т. Скачать торрент  

Агенты Щ.И.Т. / Agents of S.H.I.E.L.D. Год выпуска: 2019
Страна: США
Жанр: фантастика, боевик, триллер, драма, приключения
Продолжительность: ~ 00:43:00
Перевод: Профессиональный (дублированный) | Невафильм
Субтитры: Русские (Forced, Full | SFI), английские (Full)

Режиссёр: Билл Джирхарт, Винс Мисиано, Джесси Бокко

В ролях: Кларк Грегг, Минг-На, Бретт Далтон, Хлоя Беннет, Йен де Кестекер, Элизабет Хенстридж, Ник Блад, Эдрианн Палики, Генри Симмонс, Люк Митчелл

Описание: Действия сериала разворачиваются после событий фильма «Мстители». Агент Фил Колсон возвращается в правоохранительную организацию под названием Щ. И. Т., собрав небольшую команду профессионалов, он начинает работу над новыми делами, которые порой бывают очень странными.




Качество: WEB-DL 1080p
Контейнер: MKV

Видео: AVC, 1920x1080 (16:9), ~8000 kbps, 23.976 fps
Аудио 1: AC3, 48 kHz, 2 ch, 192 kbps
Аудио 2: E-AC3, 48 kHz, 6 ch, 640 kbps


Спасибо:
01 Недостающие детали | Missing Pieces
02 Спектр возможностей | Window of Opportunity
03 Страх и ненависть на планете Китсон | Fear and Loathing on the Planet of Kitson
04 Код желтый Code Yellow
05 Дело не в этом | The Other Thing

Анонс:

06 Inescapable (14.06.2019)
07 Toldja (21.06.2019)
08 Collision Course Part One (28.06.2019)
09 Collision Course Part Two (05.07.2019)
10 Leap (12.07.2019)
11 From the Ashes (19.07.2019)
12 The Sign (26.07.2019)
13 New Life (02.08.2019)
Полное имя                               : D:\RELEASE\Marvels.Agents.of.S.H.I.E.L.D.S06.1080p.WEB-DL.DUB.EniaHD\Marvels.Agents.of.S.H.I.E.L.D.S06E01.Missing.Pieces.1080p.WEB-DL.DUB.EniaHD.mkv
Формат                                   : Matroska
Версия формата                           : Version 4
Размер файла                             : 2,67 Гбайт
Продолжительность                        : 42 м. 20 с.
Общий поток                              : 9042 Кбит/сек
Название фильма                          : Недостающие детали
Дата кодирования                         : UTC 2019-05-20 13:19:09
Программа кодирования                    : mkvmerge v32.0.0 ('Astral Progressions') 32-bit
Библиотека кодирования                   : libebml v1.3.7 + libmatroska v1.5.0
Обложка                                  : Yes
Attachments                              : cover.agents_of_shield.06.jpg

Видео
Идентификатор                            : 1
Формат                                   : AVC
Формат/Информация                        : Advanced Video Codec
Профиль формата                          : High@L4
Настройки формата                        : CABAC / 4 Ref Frames
Параметр CABAC формата                   : Да
Параметр RefFrames формата               : 4 кадра
Идентификатор кодека                     : V_MPEG4/ISO/AVC
Продолжительность                        : 42 м. 20 с.
Вид битрейта                             : Постоянный
Битрейт                                  : 8207 Кбит/сек
Номинальный битрейт                      : 10000 Кбит/сек
Ширина                                   : 1920 пикселей
Высота                                   : 1080 пикселей
Соотношение сторон                       : 16:9
Режим частоты кадров                     : Постоянный
Частота кадров                           : 23,976 (24000/1001) кадра/сек
Цветовое пространство                    : YUV
Субдискретизация насыщенности            : 4:2:0
Битовая глубина                          : 8 бит
Тип развёртки                            : Прогрессивная
Бит/(Пиксели*Кадры)                      : 0.165
Размер потока                            : 2,43 Гбайт (91%)
Язык                                     : English
Default                                  : Да
Forced                                   : Нет
Цветовой диапазон                        : Limited
Основные цвета                           : BT.709
Характеристики трансфера                 : BT.709
Коэффициенты матрицы                     : BT.709

Аудио #1
Идентификатор                            : 2
Формат                                   : AC-3
Формат/Информация                        : Audio Coding 3
Коммерческое название                    : Dolby Digital
Идентификатор кодека                     : A_AC3
Продолжительность                        : 42 м. 19 с.
Вид битрейта                             : Постоянный
Битрейт                                  : 192 Кбит/сек
Каналы                                   : 2 канала
ChannelLayout                            : L R
Частота                                  : 48,0 КГц
Частота кадров                           : 31,250 кадров/сек (1536 SPF)
Битовая глубина                          : 16 бит
Метод сжатия                             : С потерями
Размер потока                            : 58,1 Мбайт (2%)
Заголовок                                : AC3 2.0 @ 192 kbps - DUB, Невафильм
Язык                                     : Russian
ServiceKind/String                       : Complete Main
Default                                  : Да
Forced                                   : Нет

Аудио #2
Идентификатор                            : 3
Формат                                   : E-AC-3
Формат/Информация                        : Enhanced AC-3
Коммерческое название                    : Dolby Digital Plus
Идентификатор кодека                     : A_EAC3
Продолжительность                        : 42 м. 20 с.
Вид битрейта                             : Постоянный
Битрейт                                  : 640 Кбит/сек
Каналы                                   : 6 каналов
ChannelLayout                            : L R C LFE Ls Rs
Частота                                  : 48,0 КГц
Частота кадров                           : 31,250 кадров/сек (1536 SPF)
Метод сжатия                             : С потерями
Размер потока                            : 194 Мбайт (7%)
Заголовок                                : E-AC3 5.1 @ 640 kbps - Original
Язык                                     : English
ServiceKind/String                       : Complete Main
Default                                  : Нет
Forced                                   : Нет

Текст #1
Идентификатор                            : 4
Формат                                   : UTF-8
Идентификатор кодека                     : S_TEXT/UTF8
Идентификатор кодека/Информация          : UTF-8 Plain Text
Продолжительность                        : 38 м. 10 с.
Битрейт                                  : 0 бит/сек
ElementCount                             : 6
Размер потока                            : 220 байт (0%)
Заголовок                                : Forced
Язык                                     : Russian
Default                                  : Да
Forced                                   : Да

Текст #2
Идентификатор                            : 5
Формат                                   : UTF-8
Идентификатор кодека                     : S_TEXT/UTF8
Идентификатор кодека/Информация          : UTF-8 Plain Text
Продолжительность                        : 41 м. 41 с.
Битрейт                                  : 109 бит/сек
ElementCount                             : 640
Размер потока                            : 33,5 Кбайт (0%)
Заголовок                                : Full
Язык                                     : Russian
Default                                  : Нет
Forced                                   : Нет

Текст #3
Идентификатор                            : 6
Формат                                   : UTF-8
Идентификатор кодека                     : S_TEXT/UTF8
Идентификатор кодека/Информация          : UTF-8 Plain Text
Продолжительность                        : 42 м. 9 с.
Битрейт                                  : 69 бит/сек
ElementCount                             : 854
Размер потока                            : 21,6 Кбайт (0%)
Заголовок                                : Full SDH
Язык                                     : English
Default                                  : Нет
Forced                                   : Нет
Внимание! Раздача ведётся путём добавления новых серий; при каждом добавлении создаётся новый торрент. Чтобы начать докачку новой серии,пользователям необходимо сделать следующее:
(1) остановить скачивание,
(2) удалить старый торрент у себя из клиента (старые серии удалять не надо),
(3) скачать новый торрент и запустить его у себя в клиенте вместо старого, при этом указать клиенту путь в старую папку куда и должнопроисходить скачивание новых серий.

Ваш клиент при этом должен произвести хеширование (проверку) старой папки (если не производит сам - помогите ему сделать это), и будет докачивать только те серии
которых у вас ещё нет. Старые серии при этом не удаляются, а продолжают раздаваться!

Eсли вы уже удалили старые серии, то предотвратить повторную закачку старых серий можно, отжав галочку в соответствующих местах при запуске нового торрента.

По возможности, желательно не удалять старые серии как можно дольше чтобы релизёр не столько продолжал раздавать старые серии, а смог сконцентрироваться на новых.
piratbit.org



Скачать Агенты Щ.И.Т. через торрент https://www.thetvdb.com/banners/graphical/5c828cbcca1a7.jpg Скачать фильм Агенты Щ.И.Т. через торрент бесплантно в хорошем качестве Описание: Действия сериала разворачиваются после событий фильма «Мстители». Агент Фил Колсон возвращается в правоохранительную организацию ... 9 10 6
Торрент: Зарегистрирован [2019-07-14 05:21] · скачан: 4 раз
Статус: √ проверено
Размер: 24.53 GB
Как cкачать? Как скачать Агенты Щ.И.Т. через торрент | qTorrent

% Раздел Тема Автор DL S | L
Зарубежные сериалы [ 12.04 GB ] Агенты Щ.И.Т. / Agents of S.H.I.E.L.D. / Сезон: 6 / Серии: 1-9 из 13 [2019 WEB-DL 720p] DUB [Невафильм] bober100 Скачать
4 | 0
Зарубежные сериалы [ 5.61 GB ] Агенты «Щ.И.Т.» / Agents of S.H.I.E.L.D./ Сезон: 6 / Серии: 1-9 из 13 [2019 WEB-DLRip ] [LostFilm] Sanekzade1989 Скачать
4 | 0


>> Регистрируемся здесь <<






Отзывы и комментарии о схеме читаем и пишем здесь: ---> Отзывы и комментарии о схеме

Новые благодарочки в телеграм довольных пользователей:
скриншот   скриншот   скриншот   скриншот   скриншот
    Дорогой пользователь! Огромная просьба, поблагодарите релизера, оцените раздачу и оставьте свои комментарий, если Вы скачали Агенты Щ.И.Т. через торрент бесплатно! Внесите свою лепту в развитие PiratBit!
    Комментировать посты могут только пользователи прошедшие не сложную регистрацию
    Показать сообщения:    

    Агенты Щ.И.Т. через торрент
    Скачать бесплатно Агенты Щ.И.Т.
    Агенты Щ.И.Т. скачать торрент
    Агенты Щ.И.Т. смотреть онлайн
    Cкачать фильм Агенты Щ.И.Т. бесплатно
    Агенты Щ.И.Т. скачать торрент в хорошем качестве
    Агенты Щ.И.Т. смотреть онлайн бесплатно в хорошем качестве


    Вы не можете начинать темы
    Вы не можете отвечать на сообщения
    Вы не можете редактировать свои сообщения
    Вы не можете удалять свои сообщения
    Вы не можете голосовать в опросах
    Вы не можете прикреплять файлы к сообщениям
    Вы можете скачивать файлы