новый адрес
Ссылка на приватное зеркало всего за 1$. Внимание количество ограничено!!!

iTunes

1+1

iTunes

мы

iTunes

1

iTunes

Чернобыль

iTunes

Ральф против интернета

Лицензия

ПШазам

Лицензия

Оно 2

Лицензия

30
pack

Вам бонус

ВАЖНО

!!Акция!!

Alien_RageХит недели

RePack

Resident Evil 21

ИГРА 18+

pack

RePack

jed

!!Акция!!

Alien_Rage

RePack

fifa19

RePack

Assassins Creed: Odyssey

RePack

NEED FOR SPEED™ PAYBACK

3 сезон

9 сезон

Бесстыжие 9 сезон

Все сериалы

все сериалы на PB.wtf

RePack

FAR CRY 5
Ребята, катастрофически не хватает 1900р. для оплаты серверов за Октябрь (всвязи с блокировками трафик упал в 3 раза), 1-2р., выручайте.
  

Пятнадцать минут войны / L'Intervention (Фред Гривуа) [2019, Боевик, драма, военный, история, HDRip-AVC] MVO [iTunes] - ExKinoRay piratbit.org

Пятнадцать минут войны через торрент piratbit.org

Раздают: 18 [ 3 KB/s ] Качают: 1 [ 0 KB/s ]
Размер: 1.4 GB | Добавлен: 4 мес. 10 д. назад | Торрент скачан:198 раз
Скачать  

23-06-2019 17:05 Пятнадцать минут войны Скачать торрент  

Информация о фильме
Название: Пятнадцать минут войны
Оригинальное название: 15 Minutes of War / L'Intervention
Год выхода: 2019
Жанр: Боевик, драма, военный, история
Режиссер: Фред Гривуа
В ролях: Альбан Ленуар, Ольга Куриленко, Себастьян Лаланн, Давид Муржиа, Микаэль Абитбуль, Гийом Лаббе, Бен Кура, Венсан Перес, Жозиан Баласко, Кевин Лэйн

Описание:
1976 год. Сомалийские мятежники угоняют школьный автобус, пассажиры которого — 21 французский ученик и американский учитель, и увозят его к нейтральной зоне на границе между французской колонией и Сомали. Французский капитан Андре Жерваль получает задание возглавить команду снайперов для оперативного спасения заложников. Когда переговоры терпят неудачу, Жерваль и его ребята становятся единственными, кто может спасти их жизнь.

rating

Страна: Франция, Бельгия
Студия: SND Groupe M6, Versus Production, C8 Films
Продолжительность: 01:38:24
Перевод: Профессиональный (многоголосый, закадровый) | iTunes

БЕЗ КАКОЙ-ЛИБО РЕКЛАМЫ!

Формат: MKV
Качество: HDRip-AVC
Видео: MPEG-4 AVC, 720x302 (2.40:1), 24.000 fps, 1657 Kbps, 0.318 bit/pixel
Аудио: 48 kHz, AC3, 5.1, 384 Kbps | RUS |

Субтитры: Русские (Full (Enigma)), французский
General
Unique ID : 208770678734067896826244098669914625399 (0x9D0FC529C195A19587F366F38A101577)
Complete name : D:\L.Intervention.2019.HDRip.AVC.ExKinoRay.mkv
Format : Matroska
Format version : Version 2
File size : 1.45 GiB
Duration : 1 h 38 min
Overall bit rate : 2 107 kb/s
Movie name : Пятнадцать минут войны 2019 from ExKinoRay
Encoded date : UTC 2019-06-23 15:39:25
Writing application : mkvmerge v5.6.0 ('Kenya Kane') built on May 27 2012 16:44:04
Writing library : libebml v1.2.3 + libmatroska v1.3.0

Video
ID : 1
Format : AVC
Format/Info : Advanced Video Codec
Format profile : High@L4.1
Format settings, CABAC : Yes
Format settings, ReFrames : 11 frames
Codec ID : V_MPEG4/ISO/AVC
Duration : 1 h 38 min
Bit rate : 1 657 kb/s
Width : 720 pixels
Height : 302 pixels
Display aspect ratio : 2.40:1
Frame rate mode : Constant
Frame rate : 24.000 FPS
Color space : YUV
Chroma subsampling : 4:2:0
Bit depth : 8 bits
Scan type : Progressive
Bits/(Pixel*Frame) : 0.318
Stream size : 1.11 GiB (77%)
Title : Enigma
Writing library : x264 core 152 r2851 ba24899
Encoding settings : cabac=1 / ref=11 / deblock=1:-2:-2 / analyse=0x3:0x113 / me=umh / subme=10 / psy=1 / psy_rd=1.01:0.05 / mixed_ref=1 / me_range=32 / chroma_me=1 / trellis=2 / 8x8dct=1 / cqm=0 / deadzone=21,11 / fast_pskip=0 / chroma_qp_offset=-3 / threads=9 / lookahead_threads=2 / sliced_threads=0 / nr=0 / decimate=0 / interlaced=0 / bluray_compat=0 / constrained_intra=0 / bframes=10 / b_pyramid=2 / b_adapt=2 / b_bias=0 / direct=3 / weightb=1 / open_gop=0 / weightp=2 / keyint=240 / keyint_min=24 / scenecut=40 / intra_refresh=0 / rc=2pass / mbtree=0 / bitrate=1657 / ratetol=1.0 / qcomp=0.60 / qpmin=0 / qpmax=51 / qpstep=4 / cplxblur=20.0 / qblur=0.5 / ip_ratio=1.30 / pb_ratio=1.20 / aq=3:0.80
Default : Yes
Forced : No
Color range : Limited
Color primaries : BT.709
Transfer characteristics : BT.709
Matrix coefficients : BT.709

Audio #1
ID : 2
Format : AC-3
Format/Info : Audio Coding 3
Mode extension : CM (complete main)
Format settings, Endianness : Big
Codec ID : A_AC3
Duration : 1 h 38 min
Bit rate mode : Constant
Bit rate : 256 kb/s
Channel(s) : 2 channels
Channel positions : Front: L R
Sampling rate : 48.0 kHz
Frame rate : 31.250 FPS (1536 spf)
Compression mode : Lossy
Stream size : 180 MiB (12%)
Title : DVO
Language : Russian
Default : Yes
Forced : No

Audio #2
ID : 3
Format : AC-3
Format/Info : Audio Coding 3
Mode extension : CM (complete main)
Format settings, Endianness : Big
Codec ID : A_AC3
Duration : 1 h 38 min
Bit rate mode : Constant
Bit rate : 192 kb/s
Channel(s) : 2 channels
Channel positions : Front: L R
Sampling rate : 48.0 kHz
Frame rate : 31.250 FPS (1536 spf)
Compression mode : Lossy
Stream size : 135 MiB (9%)
Language : French
Default : No
Forced : No

Text #1
ID : 4
Format : UTF-8
Codec ID : S_TEXT/UTF8
Codec ID/Info : UTF-8 Plain Text
Title : Full (Enigma)
Language : Russian
Default : No
Forced : No

Text #2
ID : 5
Format : UTF-8
Codec ID : S_TEXT/UTF8
Codec ID/Info : UTF-8 Plain Text
Title : Full
Language : French
Default : No
Forced : No

Menu
00:00:00.000 : fr:(01)00:00:00:000
00:09:35.958 : fr:(02)00:09:35:958
00:15:56.875 : fr:(03)00:15:56:875
00:23:28.833 : fr:(04)00:23:28:833
00:33:02.916 : fr:(05)00:33:02:916
00:39:47.833 : fr:(06)00:39:47:833
00:48:04.000 : fr:(07)00:48:04:000
00:55:23.958 : fr:(08)00:55:23:958
01:04:22.416 : fr:(09)01:04:22:416
01:12:05.916 : fr:(10)01:12:05:916
01:19:38.791 : fr:(11)01:19:38:791
01:28:59.250 : fr:(12)01:28:59:250


Релиз от:

Автор релиза: piratbit.org



Скачать Пятнадцать минут войны через торрент http://b.radikal.ru/b19/1906/3d/4290b5071c62.jpg Скачать фильм Пятнадцать минут войны через торрент бесплантно в хорошем качестве Описание:1976 год. Сомалийские мятежники угоняют школьный автобус, пассажиры которого — 21 французский ученик и американский учитель, и ... 9.6 10 23
Info! Золотая раздача, скачанное не засчитывается.
Торрент: Зарегистрирован [2019-07-11 21:47] · скачан: 198 раз
Статус: √ проверено
Размер: 1.4 GB
Как cкачать? Как скачать Пятнадцать минут войны через торрент | qTorrent



Последний раз редактировалось: Enigma2010 (2019-07-11 21:47), всего редактировалось 1 раз

24-06-2019 08:17 Пятнадцать минут войны Скачать торрент  

Я думал это про то , как гитлер захватил Бельгию или Нидерланды .piratbit.org



24-06-2019 16:19 Пятнадцать минут войны Скачать торрент  

CTEHbKA писал(а):

Я думал это про то , как гитлер захватил Бельгию или Нидерланды .

В школу на второй круг.piratbit.org



24-06-2019 16:40 Пятнадцать минут войны Скачать торрент  

CTEHbKA писал(а):

Я думал это про то , как гитлер захватил Бельгию или Нидерланды .

Красава!piratbit.org



24-06-2019 18:11 Пятнадцать минут войны Скачать торрент  

CTEHbKA писал(а):

Я думал это про то , как гитлер захватил Бельгию или Нидерланды .

ЗАГАДКА: Сколько нужно французов, чтобы защитить Париж от захвата?ОТВЕТ: Никто не знает, никогда не пробовали)))piratbit.org



25-06-2019 15:33 Пятнадцать минут войны Скачать торрент  

nfueyjd писал(а):

CTEHbKA писал(а):

Я думал это про то , как гитлер захватил Бельгию или Нидерланды .

ЗАГАДКА: Сколько нужно французов, чтобы защитить Париж от захвата?ОТВЕТ: Никто не знает, никогда не пробовали)))

оценил piratbit.org



28-06-2019 14:17 Пятнадцать минут войны Скачать торрент  

nfueyjd писал(а):

CTEHbKA писал(а):

Я думал это про то , как гитлер захватил Бельгию или Нидерланды .

ЗАГАДКА: Сколько нужно французов, чтобы защитить Париж от захвата?ОТВЕТ: Никто не знает, никогда не пробовали)))

95% всех женщин Франции во время оккупации обслуживали немецких солдат в публичных домах и апартаментах. Vive La France (Да здравствует Франция!)piratbit.org



28-06-2019 15:26 Пятнадцать минут войны Скачать торрент  

truckdriver писал(а):

nfueyjd писал(а):

CTEHbKA писал(а):

Я думал это про то , как гитлер захватил Бельгию или Нидерланды .

ЗАГАДКА: Сколько нужно французов, чтобы защитить Париж от захвата?ОТВЕТ: Никто не знает, никогда не пробовали)))

95% всех женщин Франции во время оккупации обслуживали немецких солдат в публичных домах и апартаментах. Vive La France (Да здравствует Франция!)

Так ведь отвлекали же немецких солдат от войны ;)piratbit.org



12-07-2019 04:12 Пятнадцать минут войны Скачать торрент  

Та Куриленко, че не черная что ли? piratbit.org



    Дорогой пользователь! Огромная просьба, поблагодарите релизера, оцените раздачу и оставьте свои комментарий, если Вы скачали Пятнадцать минут войны через торрент бесплатно! Внесите свою лепту в развитие PiratBit!
    Комментировать посты могут только пользователи прошедшие не сложную регистрацию
    Показать сообщения:    

    Пятнадцать минут войны через торрент
    Скачать бесплатно Пятнадцать минут войны
    Пятнадцать минут войны скачать торрент
    Пятнадцать минут войны смотреть онлайн
    Cкачать фильм Пятнадцать минут войны бесплатно
    Пятнадцать минут войны скачать торрент в хорошем качестве
    Пятнадцать минут войны смотреть онлайн бесплатно в хорошем качестве


    Вы не можете начинать темы
    Вы не можете отвечать на сообщения
    Вы не можете редактировать свои сообщения
    Вы не можете удалять свои сообщения
    Вы не можете голосовать в опросах
    Вы не можете прикреплять файлы к сообщениям
    Вы можете скачивать файлы