Доктор Стрэндж

Лицензия

Добыча

MVO

Дом дракона

1 сезон

Тор

Лицензия

Мэверик

Лицензия

Там, где раки поют

MVO

Властелин колец

1 сезон

Ultimate

pack

Рекомендуем

30

Repack

ВАЖНО

ВАЖНО

Ghostwire

RePack

jed

RePack

nioh2

RePack

RDR2

RePack

NEED FOR SPEED™ PAYBACK

RePack

скачать торрент

Кинопоиск HD

Острые козырьки 6 сезон

6 сезон

FAR CRY 6

RePack

скачать торрент

Лицензия

скачать торрент

MVO

1

1 сезон

скачать торрент

1 сезон

скачать торрент

Лицензия

  

Понедельник - день тяжелый (Иван Лукинский) [1963, СССР, комедия, WEB-DLRip от AVP Studio]

Понедельник - день тяжелый через торрент piratbit.org

Размер: 1.09 GB | Добавлен: 3 года 3 мес. назад | Торрент скачан:50 раз
Смотреть онлайн | Скачать   

28-06-2019 09:08 Понедельник - день тяжелый Скачать торрент  

Понедельник - день тяжелый
Страна: СССР
Производство: Киностудия им. Горького

Жанр: комедия
Год выпуска: 1963
Продолжительность: 01:20:12

Перевод: Не требуется
Cубтитры: нет
Оригинальная аудиодорожка: русский

Режиссер: Иван Лукинский

В ролях:
Иван Воронов, Николай Гриценко, Виктор Чекмарёв, Станислав Хитров, Людмила Хитяева, Елена Понсова, Тамара Совчи, Виктор Петров, Владимир Муравьёв, Юрий Медведев, Марина Гаврилко, Евгения Мельникова...
Об актёрах подробней

Описание:
Товарищество на паях «Тонап», весьма умело организовав выпуск продуктов питания «похуже качеством, но побольше количеством», стало набирать мощь. Глава подпольной организации Христофоров, обеспокоенный сбытом левой продукции, разработал операцию по сближению с горпромсоветом: напросился на встречу, а к понедельнику приказал Стряпкову подыскать подарок.

Источник: WEB-DL 720p
Качество видео: WEB-DLRip
Формат видео: AVI

Видео: 720х544 (4:3), 25 fps, XviD ~ 1744 kbps avg, 0.178 bit/pixel
Аудио: 48 kHz, Dolby Digital AC3 2.0, 192 kbps

Раздача от:
Общее
Полное имя : Ponedelnik-den.tyazhelyy.1963.WEBDLRip_[New-team]_by_AVP_Studio.avi
Формат : AVI
Формат/Информация : Audio Video Interleave
Размер файла : 1,09 Гбайт
Продолжительность : 1 ч. 20 м.
Общий поток : 1945 Кбит/сек
Программа кодирования : VirtualDubMod 1.5.10.3 | www.virtualdub-fr.org || (build 2550/release)
Библиотека кодирования : VirtualDubMod build 2550/release

Видео
Идентификатор : 0
Формат : MPEG-4 Visual
Профиль формата : Advanced Simple@L5
Настройки формата : BVOP1 / Custom Matrix
Параметр BVOP формата : 1
Параметр QPel формата : Нет
Параметр GMC формата : Без точки перехода
Параметр матрицы формата : Выборочная
Идентификатор кодека : XVID
Идентификатор кодека/Подсказка : XviD
Продолжительность : 1 ч. 20 м.
Битрейт : 1744 Кбит/сек
Ширина : 720 пикселей
Высота : 544 пикселя
Соотношение сторон : 4:3
Частота кадров : 25,000 кадров/сек
Цветовое пространство : YUV
Субдискретизация насыщенности : 4:2:0
Битовая глубина : 8 бит
Тип развёртки : Прогрессивная
Метод сжатия : С потерями
Бит/(Пиксели*Кадры) : 0.178
Размер потока : 1000 Мбайт (90%)
Библиотека кодирования : XviD 73

Аудио
Идентификатор : 1
Формат : AC-3
Формат/Информация : Audio Coding 3
Коммерческое название : Dolby Digital
Идентификатор кодека : 2000
Продолжительность : 1 ч. 20 м.
Вид битрейта : Постоянный
Битрейт : 192 Кбит/сек
Каналы : 2 канала
ChannelLayout : L R
Частота : 48,0 КГц
Частота кадров : 31,250 кадров/сек (1536 SPF)
Битовая глубина : 16 бит
Метод сжатия : С потерями
Размер потока : 110 Мбайт (10%)
Выравнивание : Разделение по промежуткам
Продолжительность промежутка : 40 мс. (1,00 видеокадр)
Время предзагрузки промежутка : 500 мс.



Скачать Понедельник - день тяжелый через торрент http://picplus.ru/img/1906/28/2a10d137.png Скачать, смотреть онлайн Понедельник - день тяжелый бесплантно в хорошем качестве Описание:Товарищество на паях «Тонап», весьма умело организовав выпуск продуктов питания «похуже качеством, но побольше количеством», стало ... 10 10 1
Торрент: Зарегистрирован [2019-06-28 09:08] · скачан: 50 раз
Статус: √ проверено
Размер: 1.09 GB
Как cкачать? Как скачать Понедельник - день тяжелый через торрент | UTorrent

% Раздел Тема Автор DL S | L
Кино СССР [ 1.09 GB ] Понедельник - день тяжелый | | DLRip-AVC от AVP Studio AVP Studio Скачать
1 | 0

28-11-2019 20:33  


Отключить вcю реклaмy на сайте, в т.ч. и в плеере онлайн просмотра!

    Дорогой пользователь! Огромная просьба, поблагодарите релизера, оцените раздачу и оставьте свои комментарий, если Вы скачали Понедельник - день тяжелый через торрент бесплатно!!
    Комментировать посты могут только пользователи прошедшие не сложную регистрацию
    Показать сообщения:    


    Понедельник - день тяжелый через торрент
    Скачать бесплатно Понедельник - день тяжелый
    Понедельник - день тяжелый скачать торрент
    Понедельник - день тяжелый смотреть онлайн
    Cкачать фильм Понедельник - день тяжелый бесплатно
    Понедельник - день тяжелый скачать торрент в хорошем качестве
    Понедельник - день тяжелый смотреть онлайн бесплатно в хорошем качестве
    Вы не можете начинать темы
    Вы не можете отвечать на сообщения
    Вы не можете редактировать свои сообщения
    Вы не можете удалять свои сообщения
    Вы не можете голосовать в опросах
    Вы не можете прикреплять файлы к сообщениям
    Вы можете скачивать файлы