Достать ножи: Стеклянная луковица

MVO

Добыча

Дубляж

Уэнсдэй

1 сезон

Тор

Дубляж

13 клиническая

1 сезон

Жестокая ночь

MVO

Одни из нас

1 сезон

Deluxe

pack

Рекомендуем

30

Пиратка

ВАЖНО

ВАЖНО

Ghostwire

Пиратка

jed

RePack

nioh2

RePack

RDR2

RePack

NEED FOR SPEED™ PAYBACK

RePack

скачать торрент

Кинопоиск HD

Острые козырьки 6 сезон

6 сезон

FAR CRY 6

RePack

скачать торрент

Лицензия

скачать торрент

MVO

1

1 сезон

скачать торрент

1 сезон

скачать торрент

Лицензия

  

Золушка / Cinderella (Кеннет Брана) [2015, фэнтези, драма, мелодрама, UHD BDRip 2160p] Дубляж (rus, ukr) [Лицензия]

Золушка через торрент piratbit.org

Размер: 15.32 GB | Добавлен: 3 года 6 мес. назад | Торрент скачан:14 раз
Смотреть онлайн | Скачать | Поддержите нас   

29-06-2019 10:04 Золушка Скачать торрент  

Золушка / Cinderella««Midnight is just the beginning»»

Год выпуска: 2015
Страна: США,
Жанр: фэнтези, драма, мелодрама, семейный, экранизация
Продолжительность: 01:45:22
Перевод: Дублированный | Лицензия
Субтитры: Русские (Full), украинские (Forced, full), английские
Режиссер: Кеннет Брана
В ролях:

Лили Джеймс (Cinderella), Кейт Бланшетт (Stepmother), Ричард Мэдден (Prince), Хелена Бонем Картер (Fairy Godmother), Нонсо Анози (Captain), Стеллан Скарсгард (Grand Duke), Софи МакШера (Drisella), Холлидей Грейнджер (Anastasia), Дерек Джекоби (King), Бен Чаплин (Ella's Father), Хейли Этвелл (Ella's Mother), Роб Брайдон (Master Phineus)
Описание:
Отец молодой девушки по имени Элла, овдовев, женится во второй раз, и вскоре Элла оказывается один на один с жадными и завистливыми новыми родственницами - мачехой Леди Тремэйн и ее дочерьми - Анастасией и Дризеллой. Из хозяйки дома она превращается в служанку, вечно испачканную золой, за что и получает от своих сварливых сводных сестриц прозвище - Золушка.
Рейтинг:

MPAA: PG - Рекомендуется присутствие родителей
Качество: UHD BDRip 2160p
Формат: MKV
Видео: HEVC, 19.2 Mбит/с, 3840x1610, 23.976 кадр/с, 10 Бит
Аудио 1: Russian: 48 kHz, AC3, 3/2 (L,C,R,l,r) + LFE ch, 640.00 kbps avg |Дубляж, Blu-ray NOR|
Аудио 2: Ukrainian: 48 kHz, AC3, 3/2 (L,C,R,l,r) + LFE ch, 384.00 kbps avg |Дубляж|
Аудио 3: English: 48 kHz, AC3, 3/2 (L,C,R,l,r) + LFE ch, 640.00 kbps avg
Навигация по главам: есть

Общее
Уникальный идентификатор : 211090537914844748898336344990729676456 (0x9ECE8F0D2B656484A6FE354BB2B4A6A8)
Полное имя : D:\Мои раздачи\Передел\Cinderella.2015.BDRip.2160p.4K.HEVC.HDR.Master5.mkv
Формат : Matroska
Версия формата : Version 4 / Version 2
Размер файла : 15,3 Гбайт
Продолжительность : 1 ч. 45 м.
Общий поток : 20,8 Мбит/сек
Название фильма : Cinderella.2015.BDRip.2160p.4K.HEVC.HDR.Master5
Дата кодирования : UTC 2019-06-29 08:55:29
Программа кодирования : mkvmerge v7.9.0 ('Birds') 64bit
Библиотека кодирования : libebml v1.3.1 + libmatroska v1.4.2

Видео
Идентификатор : 1
Формат : HEVC
Формат/Информация : High Efficiency Video Coding
Коммерческое название : HDR10
Профиль формата : Main 10@L5.1@High
Идентификатор кодека : V_MPEGH/ISO/HEVC
Продолжительность : 1 ч. 45 м.
Битрейт : 19,2 Мбит/сек
Ширина : 3840 пикселей
Высота : 1610 пикселей
Соотношение сторон : 2,40:1
Режим частоты кадров : Постоянный
Частота кадров : 23,976 (24000/1001) кадра/сек
Цветовое пространство : YUV
Субдискретизация насыщенности : 4:2:0 (Type 2)
Битовая глубина : 10 бит
Бит/(Пиксели*Кадры) : 0.129
Размер потока : 14,1 Гбайт (92%)
Заголовок : Cinderella.2015.BDRip.2160p.4K.HEVC.HDR.Master5
Библиотека кодирования : x265 3.1+2-b36c03e4e771:[Windows][GCC 6.3.0][64 bit] 10bit
Настройки программы : cpuid=1176575 / frame-threads=5 / numa-pools=36 / wpp / no-pmode / no-pme / no-psnr / no-ssim / log-level=2 / input-csp=1 / input-res=3840x1610 / interlace=0 / total-frames=151578 / level-idc=51 / high-tier=1 / uhd-bd=0 / ref=4 / no-allow-non-conformance / repeat-headers / annexb / aud / hrd / info / hash=0 / no-temporal-layers / no-open-gop / min-keyint=1 / keyint=24 / gop-lookahead=0 / bframes=4 / b-adapt=2 / b-pyramid / bframe-bias=0 / rc-lookahead=25 / lookahead-slices=4 / scenecut=40 / radl=0 / no-splice / no-intra-refresh / ctu=64 / min-cu-size=8 / rect / no-amp / max-tu-size=32 / tu-inter-depth=1 / tu-intra-depth=1 / limit-tu=0 / rdoq-level=2 / dynamic-rd=0.00 / no-ssim-rd / signhide / no-tskip / nr-intra=0 / nr-inter=0 / no-constrained-intra / no-strong-intra-smoothing / max-merge=3 / limit-refs=3 / limit-modes / me=3 / subme=3 / merange=57 / temporal-mvp / weightp / no-weightb / no-analyze-src-pics / deblock=-3:-3 / no-sao / no-sao-non-deblock / rd=4 / no-early-skip / rskip / no-fast-intra / no-tskip-fast / no-cu-lossless / no-b-intra / no-splitrd-skip / rdpenalty=0 / psy-rd=2.00 / psy-rdoq=1.00 / no-rd-refine / no-lossless / cbqpoffs=0 / crqpoffs=0 / rc=crf / crf=17.0 / qcomp=0.60 / qpstep=4 / stats-write=0 / stats-read=0 / vbv-maxrate=160000 / vbv-bufsize=160000 / vbv-init=0.9 / crf-max=0.0 / crf-min=0.0 / ipratio=1.40 / pbratio=1.30 / aq-mode=2 / aq-strength=1.00 / cutree / zone-count=0 / no-strict-cbr / qg-size=32 / no-rc-grain / qpmax=69 / qpmin=0 / no-const-vbv / sar=1 / overscan=0 / videoformat=5 / range=0 / colorprim=9 / transfer=16 / colormatrix=9 / chromaloc=1 / chromaloc-top=2 / chromaloc-bottom=2 / display-window=0 / master-display=G(13250,34500)B(7500,3000)R(34000,16000)WP(15635,16450)L(10000000,20)cll=0,0 / min-luma=0 / max-luma=1023 / log2-max-poc-lsb=8 / vui-timing-info / vui-hrd-info / slices=1 / no-opt-qp-pps / no-opt-ref-list-length-pps / no-multi-pass-opt-rps / scenecut-bias=0.05 / no-opt-cu-delta-qp / no-aq-motion / hdr / hdr-opt / no-dhdr10-opt / no-idr-recovery-sei / analysis-reuse-level=5 / scale-factor=0 / refine-intra=0 / refine-inter=0 / refine-mv=0 / refine-ctu-distortion=0 / no-limit-sao / ctu-info=0 / no-lowpass-dct / refine-analysis-type=0 / copy-pic=1 / max-ausize-factor=1.0 / no-dynamic-refine / no-single-sei / no-hevc-aq / no-svt / no-field / qp-adaptation-range=1.00
Default : Да
Forced : Нет
Цветовой диапазон : Limited
Основные цвета : BT.2020
Характеристики трансфера : PQ
Коэффициенты матрицы : BT.2020 non-constant
MasteringDisplay_ColorPrimaries : Display P3
MasteringDisplay_Luminance : min: 0.0020 cd/m2, max: 1000 cd/m2

Аудио #1
Идентификатор : 2
Формат : AC-3
Формат/Информация : Audio Coding 3
Идентификатор кодека : A_AC3
Продолжительность : 1 ч. 45 м.
Вид битрейта : Постоянный
Битрейт : 640 Кбит/сек
Каналы : 6 каналов
Расположение каналов : Front: L C R, Side: L R, LFE
Частота : 48,0 КГц
Частота кадров : 31,250 кадров/сек (1536 SPF)
Битовая глубина : 16 бит
Метод сжатия : С потерями
Размер потока : 482 Мбайт (3%)
Заголовок : AC3 5.1 @ 640 kbps - Дубляж, Blu-ray NOR
Язык : Russian
ServiceKind/String : Complete Main
Default : Да
Forced : Нет

Аудио #2
Идентификатор : 3
Формат : AC-3
Формат/Информация : Audio Coding 3
Идентификатор кодека : A_AC3
Продолжительность : 1 ч. 45 м.
Вид битрейта : Постоянный
Битрейт : 384 Кбит/сек
Каналы : 6 каналов
Расположение каналов : Front: L C R, Side: L R, LFE
Частота : 48,0 КГц
Частота кадров : 31,250 кадров/сек (1536 SPF)
Битовая глубина : 16 бит
Метод сжатия : С потерями
Размер потока : 289 Мбайт (2%)
Заголовок : AC3 5.1 @ 384 kbps - Дубляж
Язык : Ukrainian
ServiceKind/String : Complete Main
Default : Нет
Forced : Нет

Аудио #3
Идентификатор : 4
Формат : AC-3
Формат/Информация : Audio Coding 3
Идентификатор кодека : A_AC3
Продолжительность : 1 ч. 45 м.
Вид битрейта : Постоянный
Битрейт : 640 Кбит/сек
Каналы : 6 каналов
Расположение каналов : Front: L C R, Side: L R, LFE
Частота : 48,0 КГц
Частота кадров : 31,250 кадров/сек (1536 SPF)
Битовая глубина : 16 бит
Метод сжатия : С потерями
Размер потока : 482 Мбайт (3%)
Язык : English
ServiceKind/String : Complete Main
Default : Нет
Forced : Нет

Текст #1
Идентификатор : 5
Формат : UTF-8
Идентификатор кодека : S_TEXT/UTF8
Идентификатор кодека/Информация : UTF-8 Plain Text
Продолжительность : 1 ч. 44 м.
Битрейт : 83 бит/сек
ElementCount : 1431
Размер потока : 64,1 Кбайт (0%)
Язык : Russian
Default : Нет
Forced : Нет

Текст #2
Идентификатор : 6
Формат : UTF-8
Идентификатор кодека : S_TEXT/UTF8
Идентификатор кодека/Информация : UTF-8 Plain Text
Продолжительность : 1 ч. 44 м.
Битрейт : 77 бит/сек
ElementCount : 1432
Размер потока : 59,5 Кбайт (0%)
Язык : Ukrainian
Default : Нет
Forced : Нет

Текст #3
Идентификатор : 7
Формат : UTF-8
Идентификатор кодека : S_TEXT/UTF8
Идентификатор кодека/Информация : UTF-8 Plain Text
Продолжительность : 1 ч. 44 м.
Битрейт : 50 бит/сек
ElementCount : 1427
Размер потока : 38,5 Кбайт (0%)
Язык : English
Default : Нет
Forced : Нет

Меню
00:00:00.000 : en:00:00:00.000
00:06:35.437 : en:00:06:35.437
00:13:58.588 : en:00:13:58.588
00:17:56.117 : en:00:17:56.117
00:22:05.574 : en:00:22:05.574
00:26:36.762 : en:00:26:36.762
00:31:17.876 : en:00:31:17.876
00:34:37.701 : en:00:34:37.701
00:38:39.400 : en:00:38:39.400
00:42:54.697 : en:00:42:54.697
00:52:52.753 : en:00:52:52.753
01:03:13.957 : en:01:03:13.957
01:10:54.667 : en:01:10:54.667
01:16:46.352 : en:01:16:46.352
01:20:41.754 : en:01:20:41.754
01:25:36.089 : en:01:25:36.089
01:28:27.177 : en:01:28:27.177
01:39:11.529 : en:01:39:11.529



Скачать Золушка через торрент https://b.radikal.ru/b21/1906/2d/6dd12d99e7eb.png Скачать, смотреть онлайн Золушка бесплантно в хорошем качестве Описание: Отец молодой девушки по имени Элла, овдовев, женится во второй раз, и вскоре Элла оказывается один на один с жадными и ... 10 10 2
Торрент: Зарегистрирован [2019-06-29 10:04] · скачан: 14 раз
Статус: √ проверено
Размер: 15.32 GB
Как cкачать? Как скачать Золушка через торрент | UTorrent

% Раздел Тема Автор DL S | L
Ultra HD (UHD: 2K, 4K, 8K) [ 51.72 GB ] Золушка / Cinderella | Лицензия | 2160p sheker187 Скачать
1 | 0
Фильмы 2015 [DVDrip, WEB-DLRip, HDrip] [ 1.47 GB ] Золушка | Лицензия | HDRip by Dean24 Dean24 Скачать
1 | 0
Фильмы [HD 720p, 1080p] (Хороший звук DUB, MVO) [ 4.37 GB ] Золушка | Лицензия | 720p от potroks potroks Скачать
1 | 0
Фильмы 2015 [DVDrip, WEB-DLRip, HDrip] [ 2.03 GB ] Золушка | Лицензия" | HDRip, Дубляж, "Лицензия" coc900 Скачать
1 | 0
Фильмы 2015 [DVDrip, WEB-DLRip, HDrip] [ 1.46 GB ] Золушка | | BDRip-AVC от potroks potroks Скачать
1 | 0
Фильмы 2015 [DVDrip, WEB-DLRip, HDrip] [ 1.46 GB ] Золушка | Лицензия | BDRip Twi7ter Скачать
1 | 0
Фильмы 2015 [DVDrip, WEB-DLRip, HDrip] [ 2.18 GB ] Золушка | Лицензия | BDRip-AVC от potroks potroks Скачать
1 | 0

28-11-2019 20:33  


Отключить вcю реклaмy на сайте, в т.ч. и в плеере онлайн просмотра!

    Дорогой пользователь! Огромная просьба, поблагодарите релизера, оцените раздачу и оставьте свои комментарий, если Вы скачали Золушка через торрент бесплатно!!
    Комментировать посты могут только пользователи прошедшие не сложную регистрацию
    Показать сообщения:    


    Золушка через торрент
    Скачать бесплатно Золушка
    Золушка скачать торрент
    Золушка смотреть онлайн
    Cкачать фильм Золушка бесплатно
    Золушка скачать торрент в хорошем качестве
    Золушка смотреть онлайн бесплатно в хорошем качестве
    Вы не можете начинать темы
    Вы не можете отвечать на сообщения
    Вы не можете редактировать свои сообщения
    Вы не можете удалять свои сообщения
    Вы не можете голосовать в опросах
    Вы не можете прикреплять файлы к сообщениям
    Вы можете скачивать файлы
    Золушка / Cinderella [2015, фэнтези, драма, мелодрама, UHD BDRip 2160p] Дубляж [Лицензия] смотреть онлайн, скачать торрент picoco.icu